Статистика раздачи
Размер:  4.59 GB   |    Зарегистрирован:  5 лет 1 месяц   |    .torrent скачан:  27 раз   |   

Пиры будут получены при скачивании

 

Скачать порно DNA Hunter / Mai in geheimer Mission / Охотницы за ДНК через торрент бесплатно :: UnionPron.org

 
 
Автор Сообщение

Sakura

avatar Sakura


[url=...1843833] [/url]
DNA Hunter / Mai in geheimer Mission / DNAハンター / Охотницы за ДНК

Год производства: 2001 г.
Жанр: Anal sex, BDSM, Big tits, Group sex, Oral sex, Sci-Fi, Rape
Серии: ep. 1-3 of 3
Продолжительность: 3х~28
Цензура: Есть в некоторых файлах (первый диск пострадал от немцев, в некоторых сценах цензура появляется, 1 мин видео вырезано (если с американскими дисками сравнивать) 2-3 диски нормальные)

Озвучка №1: Японская (Оригинальная)
Озвучка №2: Немецкая (Профессиональная, полное дублирование)
Озвучка №3: Английская (Профессиональная, полное дублирование)
[b]Субтитры[/b]: Немецкие, английские

Режиссер: Masui Takeshi
Студия: Five Ways, Pink Lemon, Anime House

Описание RUS: После потери своего жениха Юджи, опечаленная после несчастного случая Май, всё равно настроена родить от него ребенка. Она обращается к его сотрудникам в генетическом исследовании. Однако, стоимость проекта требует огромной суммы денег... Чтобы финансировать проект, Май берётся за очень уникальную работу - Охотница за ДНК. Это работа - заполучать образцы спермы для женщин, желающих детей. Но прежде, чем Май будет принята в эту элитную группу, она должна сначала пройти тест: выбрать случайного незнакомца и получить его сперму. Сможет ли она сделать это? Сможет ли она пройти тест? Сможет ли она спать с другими мужчинами и стать Охотницей за ДНК, чтобы осуществить своё желание родить ребёнка от Юджи?..

Описание ENG: fter losing her fiancee, Youji, to a mountain climbing accident, Mai (Kylie Ireland) is determined to have his baby. With a determination of steel, she approaches his associates in genetic research for help. However, the cost for the project requires an enormous amount of money...
To finance the project, Mai takes a very unique job - a DNA Hunter. It's their job to obtain semen samples for women who desire children by particular men - in any way necessary! (Talk about a job!) But before Mai will be accepted into this elite group, she must first undergo a test: pick a random stranger and obtain his semen.
Can she do it? Will she be able to pass the test? Can she sleep with other men and become a DNA Hunter to keep her dream of having Youji's baby...?

Описание GER: Die schärfsten Agentinnen sind nicht im Auftrag Ihrer Majestät im Einsatz, sondern in dem betuchter Kundinnen, die sich ein Kind wünschen - aber nicht von irgendwem: Stars, Genies, Spitzen aus Sport, Wissenschaft oder Politik sollen die Väter sein; und das durchaus auch ohne deren Einwilligung oder gar Wissen. Die junge Mai stößt zum Team vonMr. Soda, das dafür zuständig ist, das für eine künstliche Befruchtung benötigte Genmaterial zu besorgen, indem die Zielperson nach allen Regeln der Kunst verführt und "Samenraub" begangen wird ... Doch ist sie diesem Job gewachsen?

Информационные ссылки: AniDB - MAL - World Art - ХентайМаг - Anime House

Качество видео: 3x DVD5
Формат видео: DVD Video
Видео кодек: MPEG2
Аудио кодек: AC3
Видео: 720х576, (4:3), 25,000 кадров/сек, ~ 7000 Кбит/сек, PAL
Аудио №1: JAP, AC-3, 2 канала, 192 Кбит/сек, 48,0 КГц
Аудио №2: GER, AC-3, 2 канала, 192 Кбит/сек, 48,0 КГц
Аудио №3: ENG, AC-3, 2 канала, 192 Кбит/сек, 48,0 КГц
Общее
Полное имя : G:\VIDEO_TS\VTS_02_1.VOB
Формат : MPEG-PS
Размер файла : 1024 Мбайт
Продолжительность : 21 м.
Режим общего битрейта : Переменный
Общий поток : 6699 Кбит/сек

Видео
Идентификатор : 224 (0xE0)
Формат : MPEG Video
Версия формата : Version 2
Профиль формата : Main@Main
Параметр BVOP формата : Да
Параметр матрицы формата : По умолчанию
Параметр GOP формата : M=3, N=12
Продолжительность : 21 м.
Вид битрейта : Переменный
Битрейт : 5989 Кбит/сек
Максимальный битрейт : 9500 Кбит/сек
Ширина : 720 пикселей
Высота : 576 пикселей
Соотношение сторон : 4:3
Частота кадров : 25,000 кадров/сек
Стандарт вещания : PAL
Цветовое пространство : YUV
Субдискретизация насыщенности : 4:2:0
Битовая глубина : 8 бит
Тип развёртки : Чересстрочная
Порядок развёртки : Нижнее поле первое
Метод сжатия : С потерями
Бит/(Пиксели*Кадры) : 0.578
Временной код первого кадра : 00:00:00:00
Оригинал временного кода : Group of pictures header
Размер потока : 916 Мбайт (89%)

Аудио #1
Идентификатор : 189 (0xBD)-128 (0x80)
Формат : AC-3
Формат/Информация : Audio Coding 3
Расширение режима : CM (complete main)
Параметр Endianness формата : Big
Режим смешивания : DVD-Video
Продолжительность : 21 м.
Вид битрейта : Постоянный
Битрейт : 192 Кбит/сек
Каналы : 2 канала
Расположение каналов : Front: L R
Частота : 48,0 КГц
Битовая глубина : 16 бит
Метод сжатия : С потерями
Размер потока : 29,3 Мбайт (3%)

Аудио #2
Идентификатор : 189 (0xBD)-129 (0x81)
Формат : AC-3
Формат/Информация : Audio Coding 3
Расширение режима : CM (complete main)
Параметр Endianness формата : Big
Режим смешивания : DVD-Video
Продолжительность : 21 м.
Вид битрейта : Постоянный
Битрейт : 192 Кбит/сек
Каналы : 2 канала
Расположение каналов : Front: L R
Частота : 48,0 КГц
Битовая глубина : 16 бит
Метод сжатия : С потерями
Размер потока : 29,3 Мбайт (3%)

Аудио #3
Идентификатор : 189 (0xBD)-130 (0x82)
Формат : AC-3
Формат/Информация : Audio Coding 3
Расширение режима : CM (complete main)
Параметр Endianness формата : Big
Режим смешивания : DVD-Video
Продолжительность : 21 м.
Вид битрейта : Постоянный
Битрейт : 192 Кбит/сек
Каналы : 2 канала
Расположение каналов : Front: L R
Частота : 48,0 КГц
Битовая глубина : 16 бит
Метод сжатия : С потерями
Размер потока : 29,3 Мбайт (3%)

Текст #1
Идентификатор : 189 (0xBD)-32 (0x20)
Формат : RLE
Формат/Информация : Run-length encoding
Режим смешивания : DVD-Video

Текст #2
Идентификатор : 189 (0xBD)-33 (0x21)
Формат : RLE
Формат/Информация : Run-length encoding
Режим смешивания : DVD-Video

Меню
Время раздачи: с 09 до 00.00 (Киев), отдача: 100 кб/с (анальный инет)
1 Большая просьба, помогайте другим скачать (тогда релизов будет больше)
2 Если нет сидов - пишите в лс
3 Если сдохли постеры и скриншоты - пишите в лс
Трекер:  [ 24-Июл-2014 16:30 ]

Размер .torrent файла 13 KB


Размер: 4.59 GB
Хэш (hash) релиза: cbb6dd42af6ada27051aecf9732f20068fbb983e
Подписка на обновления:

Еще никто не оставлял запись к записи скачать торрент DNA Hunter Mai in geheimer Mission . Будь первым!

!Обратная связь
//main.js show_panel