Статистика раздачи
Размер:  3.14 GB   |    Зарегистрирован:  5 лет 1 месяц   |    .torrent скачан:  79 раз   |   

Пиры будут получены при скачивании

 

Скачать порно Sensitive Pornograph / Чувствительный порнограф через торрент бесплатно :: UnionPron.org

 
 
Автор Сообщение

Sakura

avatar Sakura


Sensitive Pornograph / センシティブ・ポルノグラフ / Чувствительный порнограф

Год производства: 2004 г.
Жанр: Anal sex, Oral sex, Romance, Yaoi
Серии: ep. 1
Продолжительность: 1х~31 min
Цензура: Отсутствует

Озвучка №1: Японская (Оригинальная)
Озвучка №2: Итальянская (Профессиональная, полное дублирование)
Субтитры: Итальянские

Автор оригинала: Sakura Ashika
Студия: Phoenix Entertainment, Yamato Video

Описание RUS: «Sensitive Pornograph» основан на первых двух историях манги Сакуры Ашики (Sakura Ashika)

Часть первая: Ямада Сейджи (Yamada Seiji) - мужчина двадцати двух лет, начинающий мангака. Его возлюбленный - Ханазаки Соно (Hanazaki Sono), которого он встретил только месяц назад. Соно 32 года, он известный художник, рисующий молодежную мангу с элементами эротики и имеющий много поклонников. Соно пригласил Сейджи пропустить стаканчик за знакомство. Естественно, последний в восторге, Сейджи никак не может наглядеться на красивого парня и, наконец, напивается. Соно приводит пьяного друга домой, где они занимаются сексом.
Отношения завязанные таким образом продолжаются, Соно помогает Сейджи работать над новой мангой, в перерывах часто предаваясь сексу. Однако случается неприятность: друг Сейджи, также помогающий ему в работе, рассказывает ему о слухах, что Соно спит со всеми подряд. Расстроенный Сейджи напрямую спрашивает об этом любовника, и Соно по простоте душевной все подтверждает…

Часть вторая: Старшеклассник Уэно (Ueno) подрабатывает сиделкой для домашних питомцев. Получив очередной заказ на зайчика Аки (Aki), он находит в доме клиента связанного обнаженного парня. Вопль «Где зайчик?» в исполнении Уэно непередаваем. Аки же недолго думая начинает заниматься сексом с Уэно, пока хозяин наблюдает за ними через скрытую камеру. Очевидно, владелец Аки любит играть в игры, подобные этой.

Описание ENG: Featuring two short stories, the first is about two manga-ka with a ten year age difference, Seiji Yamada and Sono Hanasaki and their intimate love life and problems. The second story is about the strange incident that happens to pet-sitter Ueno when he goes to take care of a pet rabbit named Aki, who he finds out is actually a human man.

Описание ITA: Sensitive Pornograph e' un anime di tipo Yaoi caratterizzato da una grafica esplicita ed altamente erotica sensuale... Questo anime e' basato sul manga dello stesso nome creato da Ashika Sakura. La storia si divide in due parti che narrano due situazioni differenti: nella prima storia le vicende amorose di due mangaka e nella seconda l'inconsapevole partecipazione di un pet-sitter, ad un gioco che potrebbe rivelarsi molto pericoloso...

Информационные ссылки: AniDB - MAL - World Art - ХентайМаг -

Качество видео: DVD5
Формат видео: DVD Video
Видео кодек: MPEG2
Аудио кодек: AC3
Видео: 720х576, (4:3), 25,000 кадров/сек, ~ 9000 Кбит/сек, PAL
Аудио №1: JAP, AC-3, 2 канала, 192 Кбит/сек, 48,0 КГц
Аудио №2: ITA, AC-3, 2 канала, 192 Кбит/сек, 48,0 КГц
Доп. материалы: Трейлеры
Общее
Полное имя : G:\VIDEO_TS\VTS_01_1.VOB
Формат : MPEG-PS
Размер файла : 1024 Мбайт
Продолжительность : 14 м.
Общий поток : 9545 Кбит/сек

Видео
Идентификатор : 224 (0xE0)
Формат : MPEG Video
Версия формата : Version 2
Профиль формата : Main@Main
Параметр BVOP формата : Да
Параметр матрицы формата : По умолчанию
Параметр GOP формата : M=3, N=12
Продолжительность : 14 м.
Битрейт : 9000 Кбит/сек
Ширина : 720 пикселей
Высота : 576 пикселей
Соотношение сторон : 4:3
Частота кадров : 25,000 кадров/сек
Стандарт вещания : PAL
Цветовое пространство : YUV
Субдискретизация насыщенности : 4:2:0
Битовая глубина : 8 бит
Тип развёртки : Чересстрочная
Порядок развёртки : Верхнее поле первое
Метод сжатия : С потерями
Бит/(Пиксели*Кадры) : 0.868
Временной код первого кадра : 00:00:00:00
Оригинал временного кода : Group of pictures header
Размер потока : 962 Мбайт (94%)
Основные цвета : BT.601 PAL
Характеристики трансфера : BT.470 System B, BT.470 System G
Коэффициенты матрицы : BT.601

Аудио #1
Идентификатор : 189 (0xBD)-128 (0x80)
Формат : AC-3
Формат/Информация : Audio Coding 3
Расширение режима : CM (complete main)
Параметр Endianness формата : Big
Режим смешивания : DVD-Video
Продолжительность : 14 м.
Вид битрейта : Постоянный
Битрейт : 192 Кбит/сек
Каналы : 2 канала
Расположение каналов : Front: L R
Частота : 48,0 КГц
Битовая глубина : 16 бит
Метод сжатия : С потерями
Размер потока : 20,6 Мбайт (2%)

Аудио #2
Идентификатор : 189 (0xBD)-129 (0x81)
Формат : AC-3
Формат/Информация : Audio Coding 3
Расширение режима : CM (complete main)
Параметр Endianness формата : Big
Режим смешивания : DVD-Video
Продолжительность : 14 м.
Вид битрейта : Постоянный
Битрейт : 192 Кбит/сек
Каналы : 2 канала
Расположение каналов : Front: L R
Частота : 48,0 КГц
Битовая глубина : 16 бит
Метод сжатия : С потерями
Размер потока : 20,6 Мбайт (2%)

Текст
Идентификатор : 189 (0xBD)-32 (0x20)
Формат : RLE
Формат/Информация : Run-length encoding
Режим смешивания : DVD-Video

Меню
Время раздачи: с 09 до 00.00 (Киев), отдача: 100 кб/с (анальный инет)
1 Большая просьба, помогайте другим скачать (тогда релизов будет больше)
2 Если нет сидов - пишите в лс
3 Если сдохли постеры и скриншоты - пишите в лс
Трекер:  [ 24-Июл-2014 16:30 ]

Размер .torrent файла 16 KB


Размер: 3.14 GB
Хэш (hash) релиза: b2e544e5e1d4b57db7fe45bea946c1a129d72837
Подписка на обновления:

Еще никто не оставлял запись к записи скачать торрент Sensitive Pornograph Чувствительный порнограф . Будь первым!

!Обратная связь
//main.js show_panel