Статистика раздачи
Размер:  849 MB   |    Зарегистрирован:  5 лет 1 месяц   |    .torrent скачан:  99 раз   |   

Пиры будут получены при скачивании

 

Скачать порно Kyonyuu Kazoku Saimin / Загипнотизировать Семью через торрент бесплатно :: UnionPron.org

 
 
Автор Сообщение

Sakura

avatar Sakura


[url=...1860497] [/url][url=...1854565] [/url]
Kyonyuu Kazoku Saimin / 巨乳家族催眠 / Загипнотизировать Семью

Год производства: 2014 г.
Жанр: Big tits, Oral sex, Titsjob, X-Ray, Incest, Rape, Housewives, Virgin
Серии: ep. 1
Продолжительность: 1х~29 min
Цензура: Есть

Озвучка: Японская (Оригинальная)

Режиссер: Raika Ken
Автор оригинала: Lune
Студия: T-Rex

Описание RUS: У главного героя по стечению обстоятельств появляются две симпатичные сестренки и грудастая красивая мамаша.Не вдаваясь в подробности сюжета,скажу все кратко - наш герой загипнотизирует и трахнет трех женщин с которыми теперь живет вместе,он просто хочет чтобы они от него забеременели и родили ему детей.Гипнотизировать он будет при помощи специальной лазерной указки,которую найдет в школе. ©hentaimag.ru

Описание ENG: The main hero by coincidence there are two lovely sisters and Busty beautiful mamasha.Ne going into the details of the plot, I will say briefly all - our hero will mesmerize and fuck three women with whom now live together, he just wants them to become pregnant from him and bore him children. hypnotize it will be using a special laser pointer, which will in school.

Информационные ссылки: AniDB - MAL - World Art - ХентайМаг

Качество видео: DVD5
Формат видео: DVD Video
Видео кодек: MPEG2
Аудио кодек: AC3
Видео: 720х480, (16:9), 29,970 кадров/сек, ~ 3718 Кбит/сек, NTSC
Аудио: JAP, AC-3, 2 канала, 224 Кбит/сек, 48,0 КГц
Общее
Полное имя : H:\VIDEO_TS\VTS_01_1.VOB
Формат : MPEG-PS
Размер файла : 844 Мбайт
Продолжительность : 29 м.
Общий поток : 4022 Кбит/сек

Видео
Идентификатор : 224 (0xE0)
Формат : MPEG Video
Версия формата : Version 2
Профиль формата : Main@Main
Параметр BVOP формата : Нет
Параметр матрицы формата : Выборочная
Параметр GOP формата : Variable
Продолжительность : 33 мс.
Битрейт : 3718 Кбит/сек
Максимальный битрейт : 8000 Кбит/сек
Ширина : 720 пикселей
Высота : 480 пикселей
Соотношение сторон : 16:9
Частота кадров : 29,970 кадров/сек
Стандарт вещания : NTSC
Цветовое пространство : YUV
Субдискретизация насыщенности : 4:2:0
Битовая глубина : 8 бит
Тип развёртки : Прогрессивная
Порядок развёртки : Верхнее поле первое
Метод сжатия : С потерями
Бит/(Пиксели*Кадры) : 0.359
Размер потока : 15,1 Кбайт (0%)

Аудио
Идентификатор : 189 (0xBD)-128 (0x80)
Формат : AC-3
Формат/Информация : Audio Coding 3
Расширение режима : CM (complete main)
Параметр Endianness формата : Big
Режим смешивания : DVD-Video
Продолжительность : 29 м.
Вид битрейта : Постоянный
Битрейт : 224 Кбит/сек
Каналы : 2 канала
Расположение каналов : Front: L R
Частота : 48,0 КГц
Битовая глубина : 16 бит
Метод сжатия : С потерями
Размер потока : 47,0 Мбайт (6%)

Меню
Время раздачи: с 09 до 00.00 (Киев), отдача: 100 кб/с (анальный инет)
1 Большая просьба, помогайте другим скачать (тогда релизов будет больше)
2 Если нет сидов - пишите в лс
3 Если сдохли постеры и скриншоты - пишите в лс
Трекер:  [ 24-Июл-2014 16:30 ]

Размер .torrent файла 17 KB


Размер: 849 MB
Хэш (hash) релиза: 13d212fcbc079f26ebac8f58a97d4910251be5fe
Подписка на обновления:

Еще никто не оставлял запись к записи скачать торрент Kyonyuu Kazoku Saimin Загипнотизировать Семью . Будь первым!

!Обратная связь
//main.js show_panel