Статистика раздачи
Размер:  885 MB   |    Зарегистрирован:  5 лет 1 месяц   |    .torrent скачан:  45 раз   |   

Пиры будут получены при скачивании

 

Скачать порно Enbi / Чарующая красота через торрент бесплатно :: UnionPron.org

 
 
Автор Сообщение

Sakura

avatar Sakura


Enbi / 艶美 / Чарующая красота

Год производства: 2014 г.
Жанр: Anal sex, Big tits, Group sex, Milk, Oral sex, Incest
Серии: ep. 1
Продолжительность: 1х~17 min + 7 min трейлеры
Цензура: Есть

Озвучка: Японская (Оригинальная)

Режиссер: Awai Shigeki
Автор оригинала: Miyabi Tsuzuru
Студия: AniMan, MS Pictures

Описание RUS: Кентаро возвращается в родную деревню на летний фестиваль. Парень серьезно возбудился от вида тети Шизуе в юкате, гуляя с ней во время фестиваля. Испугавшись, что тётя заметит это, Кентаро притворился что у него разболелся живот и он расстался с ней. Немного успокоившись, Кентаро стал икать тетю. Зайдя за храм он застал свою тетю занимаются сексом с троицей парней. Ошеломленный увиденным Кентаро вернулся домой и застал сестрёнку Руми, спящую в весьма непристойном виде....

Описание ENG: Kentaro returns to his native village in the summer festival. The guy is seriously excited by Shizuo kind aunt in yukata, walking with her during the festival. Fearing that my aunt noticed that Kentaro pretended that he had stomach ache and he broke up with her. Calmer, Kentaro became hiccup aunt. Going for the temple he found his aunt have sex with guys trinity. Stunned by what he saw Kentaro returned home and found her sister Rumi, sleeping in a very adult form.

Информационные ссылки: AniDB - MAL - World Art - ХентайМаг

Качество видео: DVD5
Формат видео: DVD Video
Видео кодек: MPEG2
Аудио кодек: AC3
Видео: 720х480, (16:9), 23,976 кадров/сек, ~ 6000 Кбит/сек, NTSC
Аудио: JAP, AC-3, 2 канала, 384 Кбит/сек, 48,0 КГц
Общее
Полное имя : H:\VIDEO_TS\VTS_01_1.VOB
Формат : MPEG-PS
Размер файла : 874 Мбайт
Продолжительность : 1 м. 31 с.
Общий поток : 80,5 Мбит/сек

Видео
Идентификатор : 224 (0xE0)
Формат : MPEG Video
Версия формата : Version 2
Профиль формата : Main@Main
Параметр BVOP формата : Да
Параметр матрицы формата : Выборочная
Параметр GOP формата : Variable
Продолжительность : 1 м. 31 с.
Битрейт : 78,5 Мбит/сек
Максимальный битрейт : 8600 Кбит/сек
Ширина : 720 пикселей
Высота : 480 пикселей
Соотношение сторон : 16:9
Частота кадров : 23,976 кадра/сек
Стандарт вещания : NTSC
Цветовое пространство : YUV
Субдискретизация насыщенности : 4:2:0
Битовая глубина : 8 бит
Тип развёртки : Прогрессивная
Порядок развёртки : 2:3 Pulldown
Метод сжатия : С потерями
Бит/(Пиксели*Кадры) : 9.477
Временной код первого кадра : 01:00:13:02
Оригинал временного кода : Group of pictures header
Размер потока : 853 Мбайт (98%)

Аудио
Идентификатор : 189 (0xBD)-128 (0x80)
Формат : AC-3
Формат/Информация : Audio Coding 3
Расширение режима : CM (complete main)
Параметр Endianness формата : Big
Режим смешивания : DVD-Video
Продолжительность : 1 м. 31 с.
Вид битрейта : Постоянный
Битрейт : 384 Кбит/сек
Каналы : 2 канала
Расположение каналов : Front: L R
Частота : 48,0 КГц
Битовая глубина : 16 бит
Метод сжатия : С потерями
Размер потока : 4,17 Мбайт (0%)

Меню
Время раздачи: с 09 до 00.00 (Киев), отдача: 100 кб/с (анальный инет)
1 Большая просьба, помогайте другим скачать (тогда релизов будет больше)
2 Если нет сидов - пишите в лс
3 Если сдохли постеры и скриншоты - пишите в лс
Трекер:  [ 24-Июл-2014 16:30 ]

Размер .torrent файла 17 KB


Размер: 885 MB
Хэш (hash) релиза: 6fcd4f052a2a9b446afd803bd1ccc03d16a8b04e
Подписка на обновления:

Еще никто не оставлял запись к записи скачать торрент Enbi Чарующая красота . Будь первым!

!Обратная связь
//main.js show_panel