Статистика раздачи
Размер:  1.25 GB   |    Зарегистрирован:  5 лет 1 месяц   |    .torrent скачан:  41 раз   |   

Пиры будут получены при скачивании

 

Скачать порно Zecchou Rocket / Orgasm Rocket / Ракета Оргазма / Поиграем вместе через торрент бесплатно :: UnionPron.org

 
 
Автор Сообщение

Sakura

avatar Sakura


Zecchou Rocket / Orgasm Rocket / 絶頂ロケット / Ракета Оргазма / Поиграем вместе

Год производства: 2013 г.
Жанр: Toys, Big tits, Group sex, Oral sex, Tentacles
Серии: ep. 1-2 of 2
Продолжительность: 2х~20 min
Цензура: Есть

Озвучка: Японская (Оригинальная)

Режиссер: Kondou Takashi
Автор оригинала: Taropun
Студия: Queen Bee, Studio 9 Maiami

Описание RUS: Три случайные истории,в которых на расскажут про извращенцев.В первой это буде девица любящая секс игрушки и жесткий трах желательно с двойным проникновением. Во второй героиню будет преследовать какой-то дух маньяка и будет трахать ее,то в школе,то на улице,а когда она наконец попробует избавится от него у нее ничего не получится и дух продолжит свое дело.Ну и третья история,про девушку которой нравится секс с незнакомцами.

Описание ENG: Three random stories in which to tell about it first izvraschentsev.V bude girl loves sex toys and hard fuck preferably with double penetration. The second character will pursue a spirit maniac and will fuck it, at school, on the street, and when she finally tries to get rid of him she did not work and spirit will continue to delo.Nu and third story, about a girl whose like sex with strangers.

Информационные ссылки: AniDB - MAL - World Art - ХентайМаг

Качество видео: 2х DVD5
Формат видео: DVD Video
Видео кодек: MPEG2
Аудио кодек: AC3
Видео: 720х480, (16:9), 29,970 кадров/сек, ~ 4500 Кбит/сек, NTSC
Аудио: JAP, AC-3, 2 канала, 224 Кбит/сек, 48,0 КГц
Общее
Полное имя : G:\VIDEO_TS\VTS_01_1.VOB
Формат : MPEG-PS
Размер файла : 584 Мбайт
Продолжительность : 9 с. 9 мс.
Режим общего битрейта : Переменный
Общий поток : 544 Мбит/сек

Видео
Идентификатор : 224 (0xE0)
Формат : MPEG Video
Версия формата : Version 2
Профиль формата : Main@Main
Параметр BVOP формата : Да
Параметр матрицы формата : По умолчанию
Параметр GOP формата : Variable
Продолжительность : 9 с. 9 мс.
Вид битрейта : Переменный
Битрейт : 533 Мбит/сек
Максимальный битрейт : 8000 Кбит/сек
Ширина : 720 пикселей
Высота : 480 пикселей
Соотношение сторон : 16:9
Частота кадров : 29,970 кадров/сек
Стандарт вещания : NTSC
Цветовое пространство : YUV
Субдискретизация насыщенности : 4:2:0
Битовая глубина : 8 бит
Тип развёртки : Прогрессивная
Метод сжатия : С потерями
Бит/(Пиксели*Кадры) : 51.423
Размер потока : 572 Мбайт (98%)

Аудио
Идентификатор : 189 (0xBD)-128 (0x80)
Формат : AC-3
Формат/Информация : Audio Coding 3
Расширение режима : CM (complete main)
Параметр Endianness формата : Big
Режим смешивания : DVD-Video
Продолжительность : 8 с. 992 мс.
Вид битрейта : Постоянный
Битрейт : 224 Кбит/сек
Каналы : 2 канала
Расположение каналов : Front: L R
Частота : 48,0 КГц
Битовая глубина : 16 бит
Метод сжатия : С потерями
Размер потока : 246 Кбайт (0%)

Меню
Время раздачи: с 09 до 00.00 (Киев), отдача: 100 кб/с (анальный инет)
1 Большая просьба, помогайте другим скачать (тогда релизов будет больше)
2 Если нет сидов - пишите в лс
3 Если сдохли постеры и скриншоты - пишите в лс
Трекер:  [ 24-Июл-2014 16:30 ]

Размер .torrent файла 13 KB


Размер: 1.25 GB
Хэш (hash) релиза: 84d2be7773bb383b66bf8b36a0a1e2b56e0ab1bf
Подписка на обновления:

Еще никто не оставлял запись к записи скачать торрент Zecchou Rocket Orgasm Rocket . Будь первым!

!Обратная связь
//main.js show_panel