Статистика раздачи
Размер:  1.47 GB   |    Зарегистрирован:  5 лет 1 месяц   |    .torrent скачан:  46 раз   |   

Пиры будут получены при скачивании

 

Скачать порно Pandra The Animation / Пандра через торрент бесплатно :: UnionPron.org

 
 
Автор Сообщение

Sakura

avatar Sakura


[url=...1860497] [/url][url=...1857430] [/url]
Pandra The Animation / PANDRA THE ANIMATION / Пандра

Год производства: 2014 г.
Жанр: Anal sex, Big tits, Group sex, Oral sex, X-Ray, School, Rape, Demons, Futanari, Tentacles
Серии: ep. 1
Продолжительность: 1х~27 min + 14 min трейлеры
Цензура: Есть

Озвучка: Японская (Оригинальная)

Режиссер: Raika Ken
Автор оригинала: Erect Sawaru
Студия: Pink Pineapple, T-Rex

Описание RUS: Ящик Пандоры - легендарный предмет который исполняет любые желания. Главная героиня, Ширли Уайт, переводится в Королевскую Академию Олимпа с целью найти Ящик Пандоры и для начала "расспрашивает" тентаклями главу студенческого совета и главную библиотекаршу...

Описание ENG: Pandora's Box - the legendary thing that takes any desires. The main character, Shirley White, transferred to the Royal Academy of Olympus in order to find Pandora's Box, and to start "asks" tentacles head of the student council and the main librarian.

Информационные ссылки: AniDB - MAL - World Art - ХентайМаг

Качество видео: DVD5
Формат видео: DVD Video
Видео кодек: MPEG2
Аудио кодек: AC3
Видео: 720х480, (16:9), 29,970 кадров/сек, ~ 4773 Кбит/сек, NTSC
Аудио: JAP, AC-3, 2 канала, 192 Кбит/сек, 48,0 КГц
Общее
Полное имя : H:\VIDEO_TS\VTS_01_1.VOB
Формат : MPEG-PS
Размер файла : 1024 Мбайт
Продолжительность : 28 м.
Режим общего битрейта : Переменный
Общий поток : 5066 Кбит/сек

Видео
Идентификатор : 224 (0xE0)
Формат : MPEG Video
Версия формата : Version 2
Профиль формата : Main@Main
Параметр BVOP формата : Да
Параметр матрицы формата : Выборочная
Параметр GOP формата : Variable
Продолжительность : 28 м.
Вид битрейта : Переменный
Битрейт : 4773 Кбит/сек
Максимальный битрейт : 9800 Кбит/сек
Ширина : 720 пикселей
Высота : 480 пикселей
Соотношение сторон : 16:9
Частота кадров : 29,970 кадров/сек
Стандарт вещания : NTSC
Цветовое пространство : YUV
Субдискретизация насыщенности : 4:2:0
Битовая глубина : 8 бит
Тип развёртки : Чересстрочная
Порядок развёртки : Верхнее поле первое
Метод сжатия : С потерями
Бит/(Пиксели*Кадры) : 0.461
Временной код первого кадра : 01:00:10:00
Оригинал временного кода : Group of pictures header
Размер потока : 965 Мбайт (94%)

Аудио
Идентификатор : 189 (0xBD)-128 (0x80)
Формат : AC-3
Формат/Информация : Audio Coding 3
Расширение режима : CM (complete main)
Параметр Endianness формата : Big
Режим смешивания : DVD-Video
Продолжительность : 28 м.
Вид битрейта : Постоянный
Битрейт : 192 Кбит/сек
Каналы : 2 канала
Расположение каналов : Front: L R
Частота : 48,0 КГц
Битовая глубина : 16 бит
Метод сжатия : С потерями
Размер потока : 38,8 Мбайт (4%)

Меню
Время раздачи: с 09 до 00.00 (Киев), отдача: 100 кб/с (анальный инет)
1 Большая просьба, помогайте другим скачать (тогда релизов будет больше)
2 Если нет сидов - пишите в лс
3 Если сдохли постеры и скриншоты - пишите в лс
Трекер:  [ 24-Июл-2014 16:30 ]

Размер .torrent файла 15 KB


Размер: 1.47 GB
Хэш (hash) релиза: d857bbdbc5e95d2c62f54d9f1a7b51287183d3ff
Подписка на обновления:

Еще никто не оставлял запись к записи скачать торрент Pandra The Animation Пандра . Будь первым!

!Обратная связь
//main.js show_panel