Статистика раздачи
Размер:  4.99 GB   |    Зарегистрирован:  5 лет 1 месяц   |    .torrent скачан:  34 раза   |   

Пиры будут получены при скачивании

 

Скачать порно Koikishi Purely Kiss The Animation / Влюблённый рыцарь - Невинный поцелуй через торрент бесплатно :: UnionPron.org

 
 
Автор Сообщение

Sakura

avatar Sakura


恋騎士Purely☆Kiss The Animation | Koikishi Purely Kiss The Animation | Влюблённый рыцарь - Невинный поцелуй
Год выпуска: 2013
Страна: Япония
Жанр: fantasy, knight, oral, romance, straight, virgins, x-ray
Продолжительность: >2 эп. по 30 мин.
Субтитры: Отсутствуют
Цензура: Присутствует
Режиссёр: Nishikawa Takashi
Студия: Pink Pineapple
Описание:
Главные герои, Элсия Хевенс и Канаме Фудзимори в детстве были спасены рыцарем из пожара. Под впечатлением этого поступка, мальчик и девочка поклялись друг другу, что вырастут и станут рыцарями. (В псевдо-повседневном мире этого хентая за правопорядком следит орден рыцарей.) Достигнув совершеннолетия, оба героя успешно выполнили свою клятву и плечом к плечу принялись наводить порядок на улицах родного города. Дружба между ними уже давно переросла в более сильные чувства и посему, сведения о помолвке Канаме с другой девушкой, прозвучало для Элсии как гром среди ясного неба. В смятённых чувствах девушка и не заметила, как попала в беду, окружённая группой ночных грабителей. И только помощь любимого спасает её от крупных неприятностей. Канаме разорвал навязанную ему помолвку, и признался девушке в безграничной любви, которую молодая пара тут же закрепила страстным сексом на полу тренировочного зала общежития… © hentaimag.ru
Информационные ссылки: AniDB || MAL || World Art || ХентайМаг
Исходник: DVD-5
Видео: MPEG2 | NTSC | 16x9 | 720x480 | 9800 Kbps
Аудио JAP: AC-3 | 48000Hz | 192 Kbps | 2ch
01. Erushia Havens
02. Fujimori Yuu
General
Complete name : L:\VIDEO_TS\VTS_01_1.VOB
Format : MPEG-PS
File size : 1 024 MiB
Duration : 16mn 22s
Overall bit rate mode : Variable
Overall bit rate : 8 739 Kbps

Video
ID : 224 (0xE0)
Format : MPEG Video
Format version : Version 2
Format profile : Main@Main
Format settings, BVOP : Yes
Format settings, Matrix : Custom
Duration : 16mn 22s
Bit rate mode : Variable
Bit rate : 8 373 Kbps
Maximum bit rate : 9 800 Kbps
Width : 720 pixels
Height : 480 pixels
Display aspect ratio : 16:9
Frame rate : 29.970 fps
Standard : NTSC
Color space : YUV
Chroma subsampling : 4:2:0
Bit depth : 8 bits
Scan type : Interlaced
Scan order : Top Field First
Compression mode : Lossy
Bits/(Pixel*Frame) : 0.808
Stream size : 981 MiB (96%)

Audio
ID : 189 (0xBD)-128 (0x80)
Format : AC-3
Format/Info : Audio Coding 3
Mode extension : CM (complete main)
Muxing mode : DVD-Video
Duration : 16mn 22s
Bit rate mode : Constant
Bit rate : 192 Kbps
Channel(s) : 2 channels
Channel positions : Front: L R
Sampling rate : 48.0 KHz
Bit depth : 16 bits
Compression mode : Lossy
Stream size : 22.5 MiB (2%)
Исходник: DVD-5
Видео: MPEG2 | NTSC | 16x9 | 720x480 | 9800 Kbps
Аудио JAP: AC-3 | 48000Hz | 192 Kbps | 2ch
General
Complete name : L:\VIDEO_TS\VTS_01_1.VOB
Format : MPEG-PS
File size : 1 024 MiB
Duration : 4mn 4s
Overall bit rate mode : Variable
Overall bit rate : 35.1 Mbps

Video
ID : 224 (0xE0)
Format : MPEG Video
Format version : Version 2
Format profile : Main@Main
Format settings, BVOP : Yes
Format settings, Matrix : Custom
Duration : 4mn 4s
Bit rate mode : Variable
Bit rate : 34.2 Mbps
Maximum bit rate : 9 800 Kbps
Width : 720 pixels
Height : 480 pixels
Display aspect ratio : 16:9
Frame rate : 29.970 fps
Standard : NTSC
Color space : YUV
Chroma subsampling : 4:2:0
Bit depth : 8 bits
Scan type : Interlaced
Scan order : Top Field First
Compression mode : Lossy
Bits/(Pixel*Frame) : 3.302
Stream size : 998 MiB (97%)

Audio
ID : 189 (0xBD)-128 (0x80)
Format : AC-3
Format/Info : Audio Coding 3
Mode extension : CM (complete main)
Muxing mode : DVD-Video
Duration : 4mn 4s
Bit rate mode : Constant
Bit rate : 192 Kbps
Channel(s) : 2 channels
Channel positions : Front: L R
Sampling rate : 48.0 KHz
Bit depth : 16 bits
Compression mode : Lossy
Stream size : 5.60 MiB (1%)
[url=...1005692#23]Чем воспроизводить образ диска формата *.ISO[/url]
Трекер:  [ 24-Июл-2014 16:30 ]

Размер .torrent файла 25 KB


Размер: 4.99 GB
Хэш (hash) релиза: f0f9673d5a0db59f29726ed0f419d000771926b8
Подписка на обновления:

Торренты, похожие на Koikishi Purely Kiss The Animation Влюблённый рыцарь - Невинный поцелуй скачать торрент

Форум Название Автор Размер S L Добавлен
Хентай: основной подраздел / Hentai: main subsection ·· Koikishi Purely Kiss The Animation / Влюбленный рыцарь - Невинный поцелуй (Seven) (ep. 1-2 of 2 + Special Edition) [cen] [2013-2014 г. Romance, Fantasy, Knight, Virgin, Straight, Oral, X-Ray, Anal sex, Incest, DVDRip] [jap / eng / ger / chi / rus] Sakura 974078150929 MB 0 0 1418482911

19:01

13-Дек-14

Еще никто не оставлял запись к записи скачать торрент Koikishi Purely Kiss The Animation Влюблённый рыцарь - Невинный поцелуй . Будь первым!

!Обратная связь
//main.js show_panel