Статистика раздачи
Размер:  635 MB   |    Зарегистрирован:  5 лет 1 месяц   |    .torrent скачан:  68 раз   |   

Пиры будут получены при скачивании

 

Скачать порно Chichi-iro Toiki / Молочно-белый вздох через торрент бесплатно :: UnionPron.org

 
 
Автор Сообщение

Sakura

avatar Sakura


[url=...1863338] [/url]
Chichi-iro Toiki / 乳色吐息 / Молочно-белый вздох

Год производства: 2014 г.
Жанр: Big tits, Oral sex, X-Ray, Incest
Серии: ep. 1 of 2
Продолжительность: 1х~15 min + 5 min трейлеры
Цензура: Есть

Озвучка: Японская (Оригинальная)

Режиссер: Sadayama Yanaha
Автор оригинала: Goban
Студия: Rabbit Gate, Mary Jane

Описание RUS: Прекрасная история про японского парня и японскую девушку. В жанре сестра со своей подружкой приходят домой, сестра решила пойти в ванную по своим делам, а подруга решила не терять время зря и направилась в комнату парня.

Описание ENG: Beautiful story about a Japanese guy and Japanese girl. In the genre with his girlfriend's sister come home, my sister decided to go to the bathroom by himself, and a friend decided not to waste time in vain, and went into the room guy.

Информационные ссылки: AniDB - MAL - World Art - ХентайМаг

Качество видео: DVD5
Формат видео: DVD Video
Видео кодек: MPEG2
Аудио кодек: AC3
Видео: 720х480, (16:9), 29,970 кадров/сек, ~ 4152 Кбит/сек, NTSC
Аудио: JAP, AC-3, 2 канала, 224 Кбит/сек, 48,0 КГц
Общее
Полное имя : H:\VIDEO_TS\VTS_01_1.VOB
Формат : MPEG-PS
Размер файла : 629 Мбайт
Продолжительность : 19 м.
Общий поток : 4465 Кбит/сек

Видео
Идентификатор : 224 (0xE0)
Формат : MPEG Video
Версия формата : Version 2
Профиль формата : Main@Main
Параметр BVOP формата : Нет
Параметр матрицы формата : Выборочная
Параметр GOP формата : Variable
Продолжительность : 33 мс.
Битрейт : 4152 Кбит/сек
Максимальный битрейт : 8000 Кбит/сек
Ширина : 720 пикселей
Высота : 480 пикселей
Соотношение сторон : 16:9
Частота кадров : 29,970 кадров/сек
Стандарт вещания : NTSC
Цветовое пространство : YUV
Субдискретизация насыщенности : 4:2:0
Битовая глубина : 8 бит
Тип развёртки : Прогрессивная
Порядок развёртки : Верхнее поле первое
Метод сжатия : С потерями
Бит/(Пиксели*Кадры) : 0.401
Размер потока : 16,9 Кбайт (0%)

Аудио
Идентификатор : 189 (0xBD)-128 (0x80)
Формат : AC-3
Формат/Информация : Audio Coding 3
Расширение режима : CM (complete main)
Параметр Endianness формата : Big
Режим смешивания : DVD-Video
Продолжительность : 19 м.
Вид битрейта : Постоянный
Битрейт : 224 Кбит/сек
Каналы : 2 канала
Расположение каналов : Front: L R
Частота : 48,0 КГц
Битовая глубина : 16 бит
Метод сжатия : С потерями
Размер потока : 31,5 Мбайт (5%)

Меню
Время раздачи: с 09 до 00.00 (Киев), отдача: 100 кб/с (анальный инет)
1 Большая просьба, помогайте другим скачать (тогда релизов будет больше)
2 Если нет сидов - пишите в лс
3 Если сдохли постеры и скриншоты - пишите в лс
Трекер:  [ 24-Июл-2014 16:30 ]

Размер .torrent файла 13 KB


Размер: 635 MB
Хэш (hash) релиза: 1d1302360418925c9fbfd72adc002c365ff489c9
Подписка на обновления:

Еще никто не оставлял запись к записи скачать торрент Chichi-iro Toiki Молочно-белый вздох . Будь первым!

!Обратная связь
//main.js show_panel