Статистика раздачи
Размер:  3.06 GB   |    Зарегистрирован:  5 лет 1 месяц   |    .torrent скачан:  31 раз   |   

Пиры будут получены при скачивании

 

Скачать порно Nerawareta Megami Tenshi Angeltia: Mamotta Ningentachi ni Uragirarete / Преследуемая богиня-ангел Анжелтия ~Предана людьми, которых защищала через торрент бесплатно :: UnionPron.org

 
 
Автор Сообщение

Sakura

avatar Sakura


[url=...1866222] [/url]
Nerawareta Megami Tenshi Angeltia: Mamotta Ningentachi ni Uragirarete / 狙われた女神天使エンゼルティアー ~守った人間達に裏切られて~ / Преследуемая богиня-ангел Анжелтия ~Предана людьми, которых защищала

Год производства: 2014 г.
Жанр: Big tits, Oral sex, Mystic, School, Rape, Tentacles
Серии: ep. 1
Продолжительность: 1х~29 min
Цензура: Есть

Озвучка: Японская (Оригинальная)

Автор оригинала: Syrup: Many Milk
Студия: PoRO

Описание RUS: История о нескольких школьницах с волшебными способностями, днем они обычные школьницы, ночью он сражаются со злом (монстрами, тантелями и тп.), последние противники оказались сильней, волшебницу обезвреживают и начинают драть как хотят.

Описание ENG: Story about several schoolgirls with magical abilities, they are ordinary schoolgirl day, at night he fought with evil (monsters, tentacles), Recent opponents were stronger and begin to neutralize the sorceress tear as they want.

Информационные ссылки: AniDB - MAL - World Art - ХентайМаг

Качество видео: DVD5
Формат видео: DVD Video
Видео кодек: MPEG2
Аудио кодек: AC3
Видео: 720х480, (16:9), 29,970 кадров/сек, ~ 5000 Кбит/сек, NTSC
Аудио №1: JAP, AC-3, 2 канала, 192 Кбит/сек, 48,0 КГц
Аудио №2: JAP, AC-3, 2 канала, 192 Кбит/сек, 48,0 КГц
Общее
Полное имя : H:\VIDEO_TS\VTS_01_1.VOB
Формат : MPEG-PS
Размер файла : 1024 Мбайт
Продолжительность : 4 м. 41 с.
Общий поток : 30,5 Мбит/сек

Видео
Идентификатор : 224 (0xE0)
Формат : MPEG Video
Версия формата : Version 2
Профиль формата : Main@Main
Параметр BVOP формата : Да
Параметр матрицы формата : Выборочная
Параметр GOP формата : Variable
Продолжительность : 4 м. 41 с.
Битрейт : 29,5 Мбит/сек
Максимальный битрейт : 7200 Кбит/сек
Ширина : 720 пикселей
Высота : 480 пикселей
Соотношение сторон : 16:9
Частота кадров : 29,970 кадров/сек
Стандарт вещания : NTSC
Цветовое пространство : YUV
Субдискретизация насыщенности : 4:2:0
Битовая глубина : 8 бит
Тип развёртки : Чересстрочная
Порядок развёртки : Верхнее поле первое
Метод сжатия : С потерями
Бит/(Пиксели*Кадры) : 2.849
Временной код первого кадра : 01:00:00:00
Оригинал временного кода : Group of pictures header
Размер потока : 991 Мбайт (97%)

Аудио #1
Идентификатор : 189 (0xBD)-128 (0x80)
Формат : AC-3
Формат/Информация : Audio Coding 3
Расширение режима : CM (complete main)
Параметр Endianness формата : Big
Режим смешивания : DVD-Video
Продолжительность : 4 м. 41 с.
Вид битрейта : Постоянный
Битрейт : 192 Кбит/сек
Каналы : 2 канала
Расположение каналов : Front: L R
Частота : 48,0 КГц
Битовая глубина : 16 бит
Метод сжатия : С потерями
Размер потока : 6,44 Мбайт (1%)

Аудио #2
Идентификатор : 189 (0xBD)-129 (0x81)
Формат : AC-3
Формат/Информация : Audio Coding 3
Расширение режима : CM (complete main)
Параметр Endianness формата : Big
Режим смешивания : DVD-Video
Продолжительность : 4 м. 41 с.
Вид битрейта : Постоянный
Битрейт : 192 Кбит/сек
Каналы : 2 канала
Расположение каналов : Front: L R
Частота : 48,0 КГц
Битовая глубина : 16 бит
Метод сжатия : С потерями
Размер потока : 6,44 Мбайт (1%)

Меню
Время раздачи: с 09 до 00.00 (Киев), отдача: 100 кб/с (анальный инет)
1 Большая просьба, помогайте другим скачать (тогда релизов будет больше)
2 Если нет сидов - пишите в лс
3 Если сдохли постеры и скриншоты - пишите в лс
Трекер:  [ 24-Июл-2014 16:30 ]

Размер .torrent файла 16 KB


Размер: 3.06 GB
Хэш (hash) релиза: 9fc7196661c7e66953f19e3e2cf40a3d92e03aa5
Подписка на обновления:

Еще никто не оставлял запись к записи скачать торрент Nerawareta Megami Tenshi Angeltia: Mamotta Ningentachi ni Uragirarete Преследуемая богиня-ангел Анжелтия ~Предана людьми, которых защищала . Будь первым!

!Обратная связь
//main.js show_panel