Статистика раздачи
Размер:  5.04 GB   |    Зарегистрирован:  5 лет 1 месяц   |    .torrent скачан:  74 раза   |   

Пиры будут получены при скачивании

 

Скачать порно Rinkan Club / Клуб группового изнасилования через торрент бесплатно :: UnionPron.org

 
 
Автор Сообщение

Sakura

avatar Sakura


Rinkan Club / りんかん倶楽部 / Клуб группового изнасилования

Год производства: 2011 г.
Жанр: Anal sex, BDSM, Big tits, Group sex, Milk, Oral sex, School, Rape, Scat
Серии: ep. 1-2 of 4
Продолжительность: 2х~28 min
Цензура: Есть

Озвучка: Японская (Оригинальная)

Режиссер: Sadayama Yanaha
Автор оригинала: Lilith
Студия: Pixy

Описание RUS: Хигашигакуре - город в горах. Существовала церемония, которой несколько тысяч лет. Чтобы успокоить разгневанного Бога, мужчины собираются участвовать в групповом сексе с женщиной, назначенной для этой процедуры. Если девушка забеременеет, то Бог будет успокоен и благословит деревню с миром и даст хороший урожай. Если девушка не беременеет, она будет обернута в солому пропитанную спермой и брошена в реку живой, чтобы стать жертвой Богу. В настоящее время церемония не была забыта... Развратная традиция продолжается в руках тайной организации, группа секс клуба, которая принимает активное участие в жизни уникальной школы города Хигашигакуре. Мотоко Тамура, начинает свою работу в качестве лидера группы Секс клуб! © wirruss

Описание ENG: The main character is a senior who attends Rinin High School; the only school among the mountain town of Rinin City. The main character, who is the student president of the high school, has another hidden persona. The persona as head of the "Gang Rape Club"... A dark ceremony existed that had been handed down for thousands of years in the old town of Rinin; the name of the ceremony, in particular, in the oldest of records. That ceremony, enacted to protect the region from disease and crop failure as a curse from the region's guardian deity, Hime Iwanaga, occurs in the evenings between the new moon and full moon, in which a maiden is disguised as Konohanasakuyabime and gang-raped to appease Hime Iwanaga's anger. In regards to the maiden, there must be an important man participating in the gang rape, in other words, that man must be related in blood to their wife or lover, mother or daughter, younger sister or older sister, and the like, and after the gang rape, if a pregnancy occurs, Hime Iwanaga's anger is abated, and a good harvest and safety upon the region will be promised. However, if a pregnancy does not occur for the sake of suppressing Hime Iwanaga's anger, the maiden is supposed to be covered with semen, and floated down the river alive, as a sacrifice.
And now... after the Tashio era, the ceremony itself had vanished into the dark history, but had still continued on at Rinin High School; the cruel, improper traditions being inherited over into a secret society through actions carried out by the Gang Rape Club. For generations, the student president of the High School has served as the head of the Gang Rape Club, not allowing even one day to pass uneventfully, submerging numerous women to the dark, suffocating pleasure.

Информационные ссылки: AniDB - MAL - World Art - ХентайМаг

Качество видео: 2x DVD5
Формат видео: DVD Video
Видео кодек: MPEG2
Аудио кодек: AC3
Видео: 720х480, (16:9), 29,970 кадров/сек, ~ 5000 Кбит/сек, NTSC
Аудио: JAP, AC-3, 2 канала, 192 Кбит/сек, 48,0 КГц
Общее
Полное имя : H:\VIDEO_TS\VTS_01_1.VOB
Формат : MPEG-PS
Размер файла : 1024 Мбайт
Продолжительность : 45 с.
Общий поток : 190 Мбит/сек

Видео
Идентификатор : 224 (0xE0)
Формат : MPEG Video
Версия формата : Version 2
Профиль формата : Main@Main
Параметр BVOP формата : Да
Параметр матрицы формата : Выборочная
Параметр GOP формата : Variable
Продолжительность : 45 с.
Битрейт : 186 Мбит/сек
Ширина : 720 пикселей
Высота : 480 пикселей
Соотношение сторон : 16:9
Частота кадров : 29,970 кадров/сек
Стандарт вещания : NTSC
Цветовое пространство : YUV
Субдискретизация насыщенности : 4:2:0
Битовая глубина : 8 бит
Метод сжатия : С потерями
Бит/(Пиксели*Кадры) : 18.006
Временной код первого кадра : 00:00:00:00
Оригинал временного кода : Group of pictures header
Размер потока : 1003 Мбайт (98%)

Аудио
Идентификатор : 189 (0xBD)-128 (0x80)
Формат : AC-3
Формат/Информация : Audio Coding 3
Расширение режима : CM (complete main)
Параметр Endianness формата : Big
Режим смешивания : DVD-Video
Продолжительность : 44 с.
Вид битрейта : Постоянный
Битрейт : 192 Кбит/сек
Каналы : 2 канала
Расположение каналов : Front: L R
Частота : 48,0 КГц
Битовая глубина : 16 бит
Метод сжатия : С потерями
Размер потока : 1,03 Мбайт (0%)

Меню
Время раздачи: с 09 до 00.00 (Киев), отдача: 100 кб/с (анальный инет)
1 Большая просьба, помогайте другим скачать (тогда релизов будет больше)
2 Если нет сидов - пишите в лс
3 Если сдохли постеры и скриншоты - пишите в лс
Трекер:  [ 24-Июл-2014 16:30 ]

Размер .torrent файла 13 KB


Размер: 5.04 GB
Хэш (hash) релиза: edb00418491464303171f7c91fea0bee00310227
Подписка на обновления:

Еще никто не оставлял запись к записи скачать торрент Rinkan Club Клуб группового изнасилования . Будь первым!

!Обратная связь
//main.js show_panel