Статистика раздачи
Размер:  4.07 GB   |    Зарегистрирован:  5 лет 1 месяц   |    .torrent скачан:  21 раз   |   

Пиры будут получены при скачивании

 

Скачать порно Guy / Guy Double Target / Гай: Двойная мишень через торрент бесплатно :: UnionPron.org

 
 
Автор Сообщение

Sakura

avatar Sakura


Guy / Guy Double Target / ガイ / Гай: Двойная мишень

Год производства: 1988-92 гг.
Жанр: Sci-Fi, Prison, Rape, Yuri, Monsters
Серии: ep. 1-2 of 2
Продолжительность: 2х~35 min
Цензура: Отсутствует

Озвучка №1: Японская (Оригинальная)
Озвучка №2: Английская (Профессиональная, полное дублирование)
Субтитры: Английские

Режиссер: Uchida Yorihisa
Автор оригинала: Uchida Yorihisa
Студия: Friends, AD Vision, Happy Carrot

Описание RUS: Гай - игрок, который постоянно бросает вызов фортуне ради наживы. Вместе с напарницей Реной они попадают на планету-тюрьму, которой руководит тиранша. На этой планете некий профессор проводит опыты на заключённых, и в результате аварии эксперимент выходит из-под контроля... Об этом повествует нам первая серия. Во второй же серии местом действия оказывается совершенно иная планета, этакая утопия для изгоев, где у власти стоят могущественные жрецы Золотой Богини - идола из чистого золота, которого хотят оживить, дабы получить безграничную власть над всем сущим. И Гай, в погоне за сокровищами, становится невольным участником противостояния вселенскому злу... world-art.ru

Описание ENG: Guy. He's big, he's bad, and when he's aroused, he's nearly eighteen feet... tall! But if you think Guy is bad news, just keep your eye on his partner Raina, a red-headed homicidal sex bomb with only one thing on her mind: getting out of whatever nasty situation she and Guy have managed to get themselves into with her gorgeous hide intact! (And that's not easy when you lose your clothes as often as she does!) Between the two of them, they're the dirtiest pair of soldiers of fortune to ever hit the space ways, not to mention ans interstellar-class menace to every civilized planet! But what do Guy and Raina care? They hang around the uncivilized planets anyway. After all, when you're a cool looking dude who just happens to turn into an eighteen foot tall blue monster and an over-sexed juvenile delinquent who outgrew the "juvenile" about three bra sizes back, it's not as if you're going to waste your time sipping tea and eating crumpets. Not when you're busy just trying to stay alive...

Информационные ссылки: AniDB - MAL - World Art - ХентайМаг

Качество видео: DVD5
Формат видео: DVD Video
Видео кодек: MPEG2
Аудио кодек: AC3
Видео: 720х480, (4:3), 29,970 кадров/сек, ~ 7254 Кбит/сек, NTSC
Аудио №1: JAP, AC-3, 2 канала, 224 Кбит/сек, 48,0 КГц
Аудио №2: ENG, AC-3, 2 канала, 224 Кбит/сек, 48,0 КГц
Доп. материалы: Трейлеры
Общее
Полное имя : G:\VIDEO_TS\VTS_02_1.VOB
Формат : MPEG-PS
Размер файла : 1024 Мбайт
Продолжительность : 18 м.
Режим общего битрейта : Переменный
Общий поток : 7859 Кбит/сек

Видео
Идентификатор : 224 (0xE0)
Формат : MPEG Video
Версия формата : Version 2
Профиль формата : Main@Main
Параметр BVOP формата : Да
Параметр матрицы формата : Выборочная
Параметр GOP формата : M=3, N=12
Продолжительность : 18 м.
Вид битрейта : Переменный
Битрейт : 7254 Кбит/сек
Максимальный битрейт : 9000 Кбит/сек
Ширина : 720 пикселей
Высота : 480 пикселей
Соотношение сторон : 4:3
Частота кадров : 29,970 кадров/сек
Стандарт вещания : NTSC
Цветовое пространство : YUV
Субдискретизация насыщенности : 4:2:0
Битовая глубина : 8 бит
Тип развёртки : Чересстрочная
Порядок развёртки : Верхнее поле первое
Метод сжатия : С потерями
Бит/(Пиксели*Кадры) : 0.700
Временной код первого кадра : 00:59:59:19
Оригинал временного кода : Group of pictures header
Размер потока : 945 Мбайт (92%)

Аудио #1
Идентификатор : 189 (0xBD)-128 (0x80)
Формат : AC-3
Формат/Информация : Audio Coding 3
Расширение режима : CM (complete main)
Параметр Endianness формата : Big
Режим смешивания : DVD-Video
Продолжительность : 18 м.
Вид битрейта : Постоянный
Битрейт : 224 Кбит/сек
Каналы : 2 канала
Расположение каналов : Front: L R
Частота : 48,0 КГц
Битовая глубина : 16 бит
Метод сжатия : С потерями
Задержка видео : -66 мс.
Размер потока : 29,2 Мбайт (3%)

Аудио #2
Идентификатор : 189 (0xBD)-129 (0x81)
Формат : AC-3
Формат/Информация : Audio Coding 3
Расширение режима : CM (complete main)
Параметр Endianness формата : Big
Режим смешивания : DVD-Video
Продолжительность : 18 м.
Вид битрейта : Постоянный
Битрейт : 224 Кбит/сек
Каналы : 2 канала
Расположение каналов : Front: L R
Частота : 48,0 КГц
Битовая глубина : 16 бит
Метод сжатия : С потерями
Задержка видео : -66 мс.
Размер потока : 29,2 Мбайт (3%)

Текст #1
Идентификатор : 189 (0xBD)-32 (0x20)
Формат : RLE
Формат/Информация : Run-length encoding
Режим смешивания : DVD-Video
Задержка видео : 1 с. 602 мс.

Текст #2
Идентификатор : 189 (0xBD)-33 (0x21)
Формат : RLE
Формат/Информация : Run-length encoding
Режим смешивания : DVD-Video
Задержка видео : 1 с. 602 мс.

Текст #3
Идентификатор : 189 (0xBD)-34 (0x22)
Формат : RLE
Формат/Информация : Run-length encoding
Режим смешивания : DVD-Video
Задержка видео : 1 с. 602 мс.

Меню
Время раздачи: с 09 до 00.00 (Киев), отдача: 100 кб/с (анальный инет)
1 Большая просьба, помогайте другим скачать (тогда релизов будет больше)
2 Если нет сидов - пишите в лс
3 Если сдохли постеры и скриншоты - пишите в лс
Трекер:  [ 24-Июл-2014 16:30 ]

Размер .torrent файла 10 KB


Размер: 4.07 GB
Хэш (hash) релиза: 157ac6246b98ee54b8ce4b3fae970274d766c644
Подписка на обновления:

Еще никто не оставлял запись к записи скачать торрент Guy Guy Double Target . Будь первым!

!Обратная связь
//main.js show_panel