Статистика раздачи
Размер:  1.62 GB   |    Зарегистрирован:  5 лет 1 месяц   |    .torrent скачан:  43 раза   |   

Пиры будут получены при скачивании

 

Скачать порно Love es M The Animation / Love SM / Любовь эс М / Любовь к Садо Мазо через торрент бесплатно :: UnionPron.org

 
 
Автор Сообщение

Sakura

avatar Sakura


Love es M The Animation / Love SM / ラブesエム THE ANIMATION / Любовь эс М / Любовь к Садо Мазо

Год производства: 2014 г.
Жанр: Anal sex, BDSM, Oral sex, X-Ray, School, Incest
Серии: ep. 1
Продолжительность: 1х~28 min + 17 min трейлеры
Цензура: Есть

Озвучка: Японская (Оригинальная)

Режиссер: Hayakawa Naomi
Автор оригинала: Noesis
Студия: Pink Pineapple

Описание RUS: Всем привет меня зовут Kazuki я живу со своей старшей сестрой и её маленькой подружкой под одной крышей. У меня есть одно желание которое приходится скрывать, а всё потому что я редкий извращенец и хочу снять БДСМ фильм. Сегодня пойду в секс шоп и куплю что нибудь для моего фильма, наручники, парочку костюмов ... Теперь как не крути в фильме нужны актёры, где же их взять, хотя наверное по скольку это БДСМ нам нужно кого-то насильно принудить к сексу. Ну а по скольку моя сестра и малышка Tsurutani единственные мои знакомые будем использовать их. Ну вот собственно и отрывок из сюжета, как вы поняли маленький извращенец решил позабавится со своими сестрами и снять с их участием свой фильм.

Описание ENG: A kind and reliable older sister, Mizushiro Ayaka. A younger childhood friend and now my girlfriend, Tsurutani Ayaka. While I'm happily getting along with the two, I wasn't satisfied. That is because I have a hobby that I must keep hidden.

Информационные ссылки: AniDB - MAL - World Art - ХентайМаг

Качество видео: DVD5
Формат видео: DVD Video
Видео кодек: MPEG2
Аудио кодек: AC3
Видео: 720х480, (16:9), 29,970 кадров/сек, ~ 5500 Кбит/сек, NTSC
Аудио: JAP, AC-3, 2 канала, 192 Кбит/сек, 48,0 КГц
Общее
Полное имя : H:\VIDEO_TS\VTS_01_1.VOB
Формат : MPEG-PS
Размер файла : 1024 Мбайт
Продолжительность : 30 с.
Режим общего битрейта : Переменный
Общий поток : 277 Мбит/сек

Видео
Идентификатор : 224 (0xE0)
Формат : MPEG Video
Версия формата : Version 2
Профиль формата : Main@Main
Параметр BVOP формата : Да
Параметр матрицы формата : Выборочная
Параметр GOP формата : Variable
Продолжительность : 30 с.
Вид битрейта : Переменный
Битрейт : 272 Мбит/сек
Максимальный битрейт : 9800 Кбит/сек
Ширина : 720 пикселей
Высота : 480 пикселей
Соотношение сторон : 16:9
Частота кадров : 29,970 кадров/сек
Стандарт вещания : NTSC
Цветовое пространство : YUV
Субдискретизация насыщенности : 4:2:0
Битовая глубина : 8 бит
Тип развёртки : Чересстрочная
Порядок развёртки : Верхнее поле первое
Метод сжатия : С потерями
Бит/(Пиксели*Кадры) : 26.220
Временной код первого кадра : 01:00:19:01
Оригинал временного кода : Group of pictures header
Размер потока : 1002 Мбайт (98%)

Аудио
Идентификатор : 189 (0xBD)-128 (0x80)
Формат : AC-3
Формат/Информация : Audio Coding 3
Расширение режима : CM (complete main)
Параметр Endianness формата : Big
Режим смешивания : DVD-Video
Продолжительность : 30 с.
Вид битрейта : Постоянный
Битрейт : 192 Кбит/сек
Каналы : 2 канала
Расположение каналов : Front: L R
Частота : 48,0 КГц
Битовая глубина : 16 бит
Метод сжатия : С потерями
Размер потока : 723 Кбайт (0%)

Меню
Время раздачи: с 09 до 00.00 (Киев), отдача: 100 кб/с (анальный инет)
1 Большая просьба, помогайте другим скачать (тогда релизов будет больше)
2 Если нет сидов - пишите в лс
3 Если сдохли постеры и скриншоты - пишите в лс
Трекер:  [ 24-Июл-2014 16:30 ]

Размер .torrent файла 16 KB


Размер: 1.62 GB
Хэш (hash) релиза: c3c661eb3efe3ab9231a5212a61075d241246c6b
Подписка на обновления:

Еще никто не оставлял запись к записи скачать торрент Love es M The Animation Love SM . Будь первым!

!Обратная связь
//main.js show_panel