Статистика раздачи
Размер:  17.32 GB   |    Зарегистрирован:  5 лет 1 месяц   |    .torrent скачан:  16 раз   |   

Пиры будут получены при скачивании

 

Скачать порно Crying Freeman / Плачущий убийца через торрент бесплатно :: UnionPron.org

 
 
Автор Сообщение

Sakura

avatar Sakura


Crying フリーマン | Crying Freeman | Плачущий убийца


Год выпуска: 1988
Страна: Япония
Жанр: action, erotic, martial arts, seinen, underworld, violence
Продолжительность: >6 эп. по 55 мин.
Субтитры:

Английские

Цензура: Отсутствует
Режиссёр: Matsuura Jouhei | Nishio Daisuke | Nishizawa Nobutaka | Yamauchi Shigeyasu
Студия: ADV Films
Описание:
A gentle artist is turned into a merciless killer against his will. He fights to get his life back and for the clan that adopted him. As the top assassin of his trade, he will always cry after killing, hence his codename: Crying Freeman. A ruthless gang of political mercenaries, known as the African Tusk, execute a ferocious assault against the 108 Dragons. With ten of his leaders brutally murdered, Freeman Yoh vows to exact his revenge. Led by Jigon and Shikebaro, the formidable African Tusk are already responsible for the assassination of over thirty key dignitaries in Africa and Europe. Has Crying Freeman finally met his match in their Commander, the dark-eyed beauty Bugnug and her deadly bird-head knife?
Информационные ссылки: AniDB || MAL || World Art || АниМаг
Исходник: DVD-9
Видео: MPEG2 | NTSC | 16x9 | 720x480 | 8600 Kbps
Аудио ENG #1: AC-3 | 48000Hz | 192 Kbps | 2ch
Аудио JAP #2: AC-3 | 48000Hz | 192 Kbps | 2ch
01. Portrait of a Killer
02. A Taste of Revenge
03. Eternal Love
04. Oshu Tohgoku
05. Abduction in Chinatown
06. The Light in the Darkness
General
Complete name : L:\VIDEO_TS\VTS_02_1.VOB
Format : MPEG-PS
File size : 1 024 MiB
Duration : 21mn 38s
Overall bit rate mode : Variable
Overall bit rate : 6 612 Kbps

Video
ID : 224 (0xE0)
Format : MPEG Video
Format version : Version 2
Format profile : Main@Main
Format settings, BVOP : Yes
Format settings, Matrix : Custom
Format settings, GOP : M=3, N=12
Duration : 21mn 38s
Bit rate mode : Variable
Bit rate : 6 097 Kbps
Maximum bit rate : 8 600 Kbps
Width : 720 pixels
Height : 480 pixels
Display aspect ratio : 4:3
Frame rate : 29.970 fps
Standard : NTSC
Color space : YUV
Chroma subsampling : 4:2:0
Bit depth : 8 bits
Scan type : Interlaced
Scan order : Top Field First
Compression mode : Lossy
Bits/(Pixel*Frame) : 0.589
Stream size : 944 MiB (92%)

Audio #1
ID : 189 (0xBD)-128 (0x80)
Format : AC-3
Format/Info : Audio Coding 3
Mode extension : CM (complete main)
Muxing mode : DVD-Video
Duration : 21mn 38s
Bit rate mode : Constant
Bit rate : 192 Kbps
Channel(s) : 2 channels
Channel positions : Front: L R
Sampling rate : 48.0 KHz
Bit depth : 16 bits
Compression mode : Lossy
Delay relative to video : -66ms
Stream size : 29.7 MiB (3%)

Audio #2
ID : 189 (0xBD)-129 (0x81)
Format : AC-3
Format/Info : Audio Coding 3
Mode extension : CM (complete main)
Muxing mode : DVD-Video
Duration : 21mn 38s
Bit rate mode : Constant
Bit rate : 192 Kbps
Channel(s) : 2 channels
Channel positions : Front: L R
Sampling rate : 48.0 KHz
Bit depth : 16 bits
Compression mode : Lossy
Delay relative to video : -66ms
Stream size : 29.7 MiB (3%)

Text
ID : 189 (0xBD)-32 (0x20)
Format : RLE
Format/Info : Run-length encoding
Muxing mode : DVD-Video
[url]...1362980[/url]

Оригинальные диски.


Исходник: DVD-9
Видео: MPEG2 | NTSC | 16x9 | 720x480 | 8600 Kbps
Аудио ENG #1: AC-3 | 48000Hz | 448 Kbps | 6ch
Аудио JAP #2: AC-3 | 48000Hz | 192 Kbps | 2ch
General
Complete name : L:\VIDEO_TS\VTS_02_1.VOB
Format : MPEG-PS
File size : 1 024 MiB
Duration : 20mn 25s
Overall bit rate mode : Variable
Overall bit rate : 7 010 Kbps

Video
ID : 224 (0xE0)
Format : MPEG Video
Format version : Version 2
Format profile : Main@Main
Format settings, BVOP : Yes
Format settings, Matrix : Custom
Format settings, GOP : M=3, N=12
Duration : 20mn 25s
Bit rate mode : Variable
Bit rate : 6 230 Kbps
Maximum bit rate : 8 600 Kbps
Width : 720 pixels
Height : 480 pixels
Display aspect ratio : 4:3
Frame rate : 29.970 fps
Standard : NTSC
Color space : YUV
Chroma subsampling : 4:2:0
Bit depth : 8 bits
Scan type : Interlaced
Scan order : Top Field First
Compression mode : Lossy
Bits/(Pixel*Frame) : 0.602
Stream size : 910 MiB (89%)

Audio #1
ID : 189 (0xBD)-128 (0x80)
Format : AC-3
Format/Info : Audio Coding 3
Mode extension : CM (complete main)
Muxing mode : DVD-Video
Duration : 20mn 25s
Bit rate mode : Constant
Bit rate : 448 Kbps
Channel(s) : 6 channels
Channel positions : Front: L C R, Side: L R, LFE
Sampling rate : 48.0 KHz
Bit depth : 16 bits
Compression mode : Lossy
Delay relative to video : -66ms
Stream size : 65.4 MiB (6%)

Audio #2
ID : 189 (0xBD)-129 (0x81)
Format : AC-3
Format/Info : Audio Coding 3
Mode extension : CM (complete main)
Muxing mode : DVD-Video
Duration : 20mn 25s
Bit rate mode : Constant
Bit rate : 192 Kbps
Channel(s) : 2 channels
Channel positions : Front: L R
Sampling rate : 48.0 KHz
Bit depth : 16 bits
Compression mode : Lossy
Delay relative to video : -66ms
Stream size : 28.0 MiB (3%)


Исходник: DVD-9
Видео: MPEG2 | NTSC | 16x9 | 720x480 | 8600 Kbps
Аудио ENG #1: AC-3 | 48000Hz | 448 Kbps | 6ch
Аудио JAP #2: AC-3 | 48000Hz | 192 Kbps | 2ch
General
Complete name : L:\VIDEO_TS\VTS_02_1.VOB
Format : MPEG-PS
File size : 1 024 MiB
Duration : 20mn 17s
Overall bit rate mode : Variable
Overall bit rate : 7 052 Kbps

Video
ID : 224 (0xE0)
Format : MPEG Video
Format version : Version 2
Format profile : Main@Main
Format settings, BVOP : Yes
Format settings, Matrix : Custom
Format settings, GOP : M=3, N=12
Duration : 20mn 17s
Bit rate mode : Variable
Bit rate : 6 272 Kbps
Maximum bit rate : 8 600 Kbps
Width : 720 pixels
Height : 480 pixels
Display aspect ratio : 4:3
Frame rate : 29.970 fps
Standard : NTSC
Color space : YUV
Chroma subsampling : 4:2:0
Bit depth : 8 bits
Scan type : Interlaced
Scan order : Top Field First
Compression mode : Lossy
Bits/(Pixel*Frame) : 0.606
Stream size : 911 MiB (89%)

Audio #1
ID : 189 (0xBD)-128 (0x80)
Format : AC-3
Format/Info : Audio Coding 3
Mode extension : CM (complete main)
Muxing mode : DVD-Video
Duration : 20mn 17s
Bit rate mode : Constant
Bit rate : 448 Kbps
Channel(s) : 6 channels
Channel positions : Front: L C R, Side: L R, LFE
Sampling rate : 48.0 KHz
Bit depth : 16 bits
Compression mode : Lossy
Delay relative to video : -66ms
Stream size : 65.0 MiB (6%)

Audio #2
ID : 189 (0xBD)-129 (0x81)
Format : AC-3
Format/Info : Audio Coding 3
Mode extension : CM (complete main)
Muxing mode : DVD-Video
Duration : 20mn 17s
Bit rate mode : Constant
Bit rate : 192 Kbps
Channel(s) : 2 channels
Channel positions : Front: L R
Sampling rate : 48.0 KHz
Bit depth : 16 bits
Compression mode : Lossy
Delay relative to video : -66ms
Stream size : 27.9 MiB (3%)

Text
ID : 189 (0xBD)-32 (0x20)
Format : RLE
Format/Info : Run-length encoding
Muxing mode : DVD-Video
[url=...1005692#23]Чем воспроизводить образ диска формата *.ISO[/url]
Трекер:  [ 22-Июл-2014 11:30 ]

Размер .torrent файла 87 KB


Размер: 17.32 GB
Хэш (hash) релиза: c504041fe510ec1f6d96e8106e17128708b8dad2
Подписка на обновления:

Еще никто не оставлял запись к записи скачать торрент Crying Freeman Плачущий убийца . Будь первым!

!Обратная связь
//main.js show_panel