Статистика раздачи
Размер:  10.46 GB   |    Зарегистрирован:  5 лет 1 месяц   |    .torrent скачан:  22 раза   |   

Пиры будут получены при скачивании

 

Скачать порно Golden Boy / Золотой парень через торрент бесплатно :: UnionPron.org

 
 
Автор Сообщение

Sakura

avatar Sakura


ゴールデンボーイ | Golden Boy | Золотой парень


Год выпуска: 1995
Страна: Япония
Жанр: comedy, ecchi, harem
Продолжительность: >6 эп. по 30 мин.
Субтитры:

Английские

Цензура: Отсутствует
Режиссёр: Kitakubo Hiroyuki
Студия: ADV Films
Описание:
Кинтаро Оэ, 25 лет, обучался в Токийском университете, но бросил учёбу, не закончив его. Однако прошёл все необходимые курсы, чтобы получить свою учёную степень. С тех пор он ездит по стране и меняет места работы, изучая таким образом жизнь. На своём велосипеде он мчится вперёд, всегда открытый новым знаниям и впечатлениям. Кто знает, возможно, однажды именно он спасёт мир. © Sever
Информационные ссылки: AniDB || MAL || World Art || АниМаг
Видео: MPEG2 | NTSC | 4x3 | 720x480 | 9000 Kbps
Аудио ENG #1: AC-3 | 48000Hz | 448 Kbps | 6ch
Аудио JAP #2: AC-3 | 48000Hz | 224 Kbps | 2ch
Видео: MPEG2 | NTSC | 4x3 | 720x480 | 9000 Kbps
Аудио ENG #1: AC-3 | 48000Hz | 448 Kbps | 6ch
Аудио JAP #2: AC-3 | 48000Hz | 224 Kbps | 2ch
01. Computer Studies
02. The Temptation of the Maiden
03. Danger! The Virgin`s First Love
04. Swimming in the Sea of Love
05. Unstoppable Youth
06. Animation is Fun!
General
Complete name : L:\VIDEO_TS\VTS_02_1.VOB
Format : MPEG-PS
File size : 1 024 MiB
Duration : 19mn 5s
Overall bit rate mode : Variable
Overall bit rate : 7 498 Kbps

Video
ID : 224 (0xE0)
Format : MPEG Video
Format version : Version 2
Format profile : Main@Main
Format settings, BVOP : Yes
Format settings, Matrix : Custom
Format settings, GOP : M=3, N=12
Duration : 19mn 5s
Bit rate mode : Variable
Bit rate : 6 677 Kbps
Maximum bit rate : 9 000 Kbps
Width : 720 pixels
Height : 480 pixels
Display aspect ratio : 4:3
Frame rate : 29.970 fps
Standard : NTSC
Color space : YUV
Chroma subsampling : 4:2:0
Bit depth : 8 bits
Scan type : Interlaced
Scan order : Top Field First
Compression mode : Lossy
Bits/(Pixel*Frame) : 0.645
Stream size : 912 MiB (89%)

Audio #1
ID : 189 (0xBD)-128 (0x80)
Format : AC-3
Format/Info : Audio Coding 3
Mode extension : CM (complete main)
Muxing mode : DVD-Video
Duration : 19mn 5s
Bit rate mode : Constant
Bit rate : 448 Kbps
Channel(s) : 6 channels
Channel positions : Front: L C R, Side: L R, LFE
Sampling rate : 48.0 KHz
Bit depth : 16 bits
Compression mode : Lossy
Delay relative to video : -66ms
Stream size : 61.2 MiB (6%)

Audio #2
ID : 189 (0xBD)-129 (0x81)
Format : AC-3
Format/Info : Audio Coding 3
Mode extension : CM (complete main)
Muxing mode : DVD-Video
Duration : 19mn 5s
Bit rate mode : Constant
Bit rate : 224 Kbps
Channel(s) : 2 channels
Channel positions : Front: L R
Sampling rate : 48.0 KHz
Bit depth : 16 bits
Compression mode : Lossy
Delay relative to video : -66ms
Stream size : 30.6 MiB (3%)

Text
ID : 189 (0xBD)-32 (0x20)
Format : RLE
Format/Info : Run-length encoding
Muxing mode : DVD-Video
General
Complete name : L:\VIDEO_TS\VTS_02_1.VOB
Format : MPEG-PS
File size : 1 024 MiB
Duration : 18mn 30s
Overall bit rate mode : Variable
Overall bit rate : 7 734 Kbps

Video
ID : 224 (0xE0)
Format : MPEG Video
Format version : Version 2
Format profile : Main@Main
Format settings, BVOP : Yes
Format settings, Matrix : Custom
Format settings, GOP : M=3, N=12
Duration : 18mn 30s
Bit rate mode : Variable
Bit rate : 6 908 Kbps
Maximum bit rate : 9 000 Kbps
Width : 720 pixels
Height : 480 pixels
Display aspect ratio : 4:3
Frame rate : 29.970 fps
Standard : NTSC
Color space : YUV
Chroma subsampling : 4:2:0
Bit depth : 8 bits
Scan type : Interlaced
Scan order : Top Field First
Compression mode : Lossy
Bits/(Pixel*Frame) : 0.667
Stream size : 915 MiB (89%)

Audio #1
ID : 189 (0xBD)-128 (0x80)
Format : AC-3
Format/Info : Audio Coding 3
Mode extension : CM (complete main)
Muxing mode : DVD-Video
Duration : 18mn 30s
Bit rate mode : Constant
Bit rate : 448 Kbps
Channel(s) : 6 channels
Channel positions : Front: L C R, Side: L R, LFE
Sampling rate : 48.0 KHz
Bit depth : 16 bits
Compression mode : Lossy
Delay relative to video : -66ms
Stream size : 59.3 MiB (6%)

Audio #2
ID : 189 (0xBD)-129 (0x81)
Format : AC-3
Format/Info : Audio Coding 3
Mode extension : CM (complete main)
Muxing mode : DVD-Video
Duration : 18mn 30s
Bit rate mode : Constant
Bit rate : 224 Kbps
Channel(s) : 2 channels
Channel positions : Front: L R
Sampling rate : 48.0 KHz
Bit depth : 16 bits
Compression mode : Lossy
Delay relative to video : -66ms
Stream size : 29.6 MiB (3%)

Text
ID : 189 (0xBD)-32 (0x20)
Format : RLE
Format/Info : Run-length encoding
Muxing mode : DVD-Video
[url=...1005692#23]Чем воспроизводить образ диска формата *.ISO[/url]
Трекер:  [ 21-Июл-2014 22:00 ]

Размер .torrent файла 53 KB


Размер: 10.46 GB
Хэш (hash) релиза: 5083e90720f70067308a9f0ee28e7eff81557e0f
Подписка на обновления:

Еще никто не оставлял запись к записи скачать торрент Golden Boy Золотой парень . Будь первым!

!Обратная связь
//main.js show_panel