Статистика раздачи
Размер:  1.86 GB   |    Зарегистрирован:  5 лет 1 месяц   |    .torrent скачан:  49 раз   |   

Пиры будут получены при скачивании

 

Скачать порно Rennyuu Tales The Animation / Любовно-сисястые истории через торрент бесплатно :: UnionPron.org

 
 
Автор Сообщение

Sakura

avatar Sakura


Rennyuu Tales The Animation / 恋乳ているず THE ANIMATION / Любовно-сисястые истории

Год производства: 2014 г.
Жанр: Big tits, Oral sex, Titsjob, School
Серии: ep. 1
Продолжительность: 1х~29 min + 19 min трейлеры
Цензура: Есть

Озвучка: Японская (Оригинальная)

Режиссер: Araki Hideki
Автор оригинала: Momi
Студия: Pink Pineapple

Описание RUS: Хентай повествует о 3х историях.

1 История про болельщицу. В школе не хватает клубных комнат, а группе поддержки (в лице одной девушке) и кружку карате (в лице одного парня) они сильно нужны, и после долгих споров директор решает пока отправить их в одну комнату. Далее все разворачивается по жанру хентая.

2 История происходит в кафе "Ponys" между официантом и официанткой. Девушка решает что-то достать из подсобки (используя стремянку), но неожиданно падает с неё на парня. Очнувшись, она обнаруживает себя на парне, который, кстати, от удара в отключке, и решает воспользоваться парнем. Ну и в процессе парень просыпается, а дальше все и так ясно.

3 История о модели. Девушка решает стать моделью и рассказывает об этом отцу, но отец против (якобы не хочет оставлять свою дочурку без присмотра), и тут как раз подворачивается парень (то ли брат, то ли сосед), которому отец поручает присматривать за дочуркой. Модель грустит, парень успокаивает модель, модель благодарна парню и любит его. А дальше уже понятно.

Описание ENG: Hentai tells about 3 stories.

1 History of cheerleader. The school did not have enough club rooms, and a support group (represented by a girl) and a mug of karate (one guy in the face) it is highly needed, and after much debate until director decides to send them to one room. Then everything unfolds hentai genre.

2 The story takes place in a cafe "Ponys" between the waiter and waitress. She decides to get something from the back room (using a ladder), but suddenly falls from her boyfriend. Waking up, she finds herself on a guy who, by the way, from the impact sedated, and decides to take the guy. Well, the guy wakes up in the process, and then everything is clear.

3 History of the model. She decides to become a model and talks about his father, but his father against the (allegedly did not want to leave her little daughter unattended), and then just tucked male (whether brother, or neighbor), which instructs the father to look after the little daughter. Model sad, quiet man model, the grateful guy and loves it. And then it is clear.

Информационные ссылки: AniDB - MAL - World Art - ХентайМаг

Качество видео: DVD5
Формат видео: DVD Video
Видео кодек: MPEG2
Аудио кодек: AC3
Видео: 720х480, (16:9), 29,970 кадров/сек, ~ 5110 Кбит/сек, NTSC
Аудио: JAP, AC-3, 2 канала, 192 Кбит/сек, 48,0 КГц
Общее
Полное имя : H:\VIDEO_TS\VTS_01_1.VOB
Формат : MPEG-PS
Размер файла : 1024 Мбайт
Продолжительность : 26 м.
Режим общего битрейта : Переменный
Общий поток : 5409 Кбит/сек

Видео
Идентификатор : 224 (0xE0)
Формат : MPEG Video
Версия формата : Version 2
Профиль формата : Main@Main
Параметр BVOP формата : Да
Параметр матрицы формата : Выборочная
Параметр GOP формата : Variable
Продолжительность : 26 м.
Вид битрейта : Переменный
Битрейт : 5110 Кбит/сек
Максимальный битрейт : 9800 Кбит/сек
Ширина : 720 пикселей
Высота : 480 пикселей
Соотношение сторон : 16:9
Частота кадров : 29,970 кадров/сек
Стандарт вещания : NTSC
Цветовое пространство : YUV
Субдискретизация насыщенности : 4:2:0
Битовая глубина : 8 бит
Тип развёртки : Чересстрочная
Порядок развёртки : Верхнее поле первое
Метод сжатия : С потерями
Бит/(Пиксели*Кадры) : 0.493
Временной код первого кадра : 01:00:10:00
Оригинал временного кода : Group of pictures header
Размер потока : 967 Мбайт (94%)

Аудио
Идентификатор : 189 (0xBD)-128 (0x80)
Формат : AC-3
Формат/Информация : Audio Coding 3
Расширение режима : CM (complete main)
Параметр Endianness формата : Big
Режим смешивания : DVD-Video
Продолжительность : 26 м.
Вид битрейта : Постоянный
Битрейт : 192 Кбит/сек
Каналы : 2 канала
Расположение каналов : Front: L R
Частота : 48,0 КГц
Битовая глубина : 16 бит
Метод сжатия : С потерями
Размер потока : 36,3 Мбайт (4%)

Меню
Время раздачи: с 09 до 00.00 (Киев), отдача: 100 кб/с (анальный инет)
1 Большая просьба, помогайте другим скачать (тогда релизов будет больше)
2 Если нет сидов - пишите в лс
3 Если сдохли постеры и скриншоты - пишите в лс
Трекер:  [ 13-Июл-2014 16:04 ]

Размер .torrent файла 19 KB


Размер: 1.86 GB
Хэш (hash) релиза: b8a0b1bd7b4f6a3fea0fd65c566bbbad005fa13b
Подписка на обновления:

Торренты, похожие на Rennyuu Tales The Animation Любовно-сисястые истории скачать торрент

Форум Название Автор Размер S L Добавлен
Хентай: основной подраздел / Hentai: main subsection ·· Rennyuu Tales The Animation / Любовно-сисястые истории (Araki Hideki, PinkPineapple) (ep. 1) [cen] [2014 г. Students, Big tits, Oral sex, Paizuri, X-Ray, DVDRip] [jap / eng / rus] Sakura 262901347251 MB 0 0 1420043495

20:31

31-Дек-14

Еще никто не оставлял запись к записи скачать торрент Rennyuu Tales The Animation Любовно-сисястые истории . Будь первым!

!Обратная связь
//main.js show_panel