Статистика раздачи
Размер:  699 MB   |    Зарегистрирован:  6 лет 5 месяцев   |    .torrent скачан:  48 раз   |   

Пиры будут получены при скачивании

 

Скачать порно Only the Best of Teens 2 / Only the Best of Teens 2 через торрент бесплатно :: UnionPron.org

 
 
Автор Сообщение

Sakura

avatar Sakura


Only the Best of Teens 2 / Only the Best of Teens 2

Год производства: 2006 г.
Страна: USA
Жанр: ALL SEX
Продолжительность: 02:07:50
Язык: Английский

Студия: Cal Vista Pictures

В ролях: Alex Rox, Ann Marie, Cheyenne Silver, Dale Dabone, Gauge, Jonathan Stern, Katie Morgan, Mark Wood, Stormy Daniels, Tabitha Stern, Taylor Rain, Tyce Bune, Violet Blue

Описание: Лучшее порно с новыми и молодыми актёрами. Качаем все новые упругие попки!!!

Качество видео: DVDRip
Формат видео: AVI
Видео кодек: DivX
Аудио кодек: MP3
Видео:
Video
Format : MPEG-4 Visual
Format settings, BVOP : Yes
Format settings, QPel : No
Format settings, GMC : No warppoints
Format settings, Matrix : Default
Muxing mode : Packed bitstream
Codec ID : DX50
Codec ID/Hint : DivX 5
Duration : 2h 7mn
Bit rate : 621 Kbps
Width : 336 pixels
Height : 256 pixels
Display aspect ratio : 4/3
Frame rate : 29.970 fps
Resolution : 24 bits
Colorimetry : 4:2:0
Scan type : Progressive
Bits/(Pixel*Frame) : 0.241
Stream size : 568 MiB (81%)
Writing library : DivX 5.0.5 (UTC 2003-04-24)
Аудио:
Audio
Format : MPEG Audio
Format version : Version 1
Format profile : Layer 3
Codec ID : 55
Codec ID/Hint : MP3
Duration : 2h 7mn
Bit rate mode : Variable
Bit rate : 129 Kbps
Nominal bit rate : 128 Kbps
Channel(s) : 2 channels
Sampling rate : 48.0 KHz
Resolution : 16 bits
Stream size : 118 MiB (17%)
Alignment : Aligned on interleaves
Interleave, duration : 24 ms (0.72 video frame)
Interleave, preload duration : 481 ms
Writing library : LAME3.90.
Encoding settings : ABR
Language : English
http://i1.fastpic.ru/big/2009/1226/fb/6fea21de126d318875992f347f9f6bfb.jpg
Трекер:  [ 11-Апр-2013 16:10 ]

Размер .torrent файла 14 KB


Размер: 699 MB
Хэш (hash) релиза: 3b17cffa01afe1b302ec12daa7e0ea031846674d
Подписка на обновления:

Frenzzy

Galfimbul
Раздай пожалуйста

Хотите добавить комментарий к записи скачать торрент Only the Best of Teens 2 Only the Best of Teens 2

!Обратная связь
//main.js show_panel