Статистика раздачи
Размер:  830 MB   |    Зарегистрирован:  8 лет 9 месяцев   |    .torrent скачан:  88 раз   |   

Пиры будут получены при скачивании

 

Скачать порно Roxy and Kacie через торрент бесплатно :: UnionPron.org

 
 
Автор Сообщение

Sakura

avatar Sakura


[VFacademy.com]
Roxy and Kacie
Jealous love...
[31.08.2012г.]
Имя актрисы: Roxy and Kacie
Название ролика: Jealous love...

Год производства: 2012 г.
Жанр: Uniforms, Lesbian, Masturbation, Schoolgirl, Upskirt
Продолжительность: 00:25:53

Тип HD видео: 720p
Формат видео: WMV
Видео кодек: Windows Media
Аудио кодек: WMA
Видео: 25.000 fps , 4 400 Kbps , 1280x720
Аудио: 63 kbps, 48 kHz, stereo Low Delay 1-pass CBR

Описание:
As we saw, Roxy was caught after masturbating for the Janitor by Kacie, her girlfriend.
Some explaining to do by the almost naked Roxy.
But despite some jealousy they make up and have a juicy sex session!
General
Complete name : Roxy and Kacie Jealous love....wmv
Format : Windows Media
File size : 830 MiB
Duration : 25mn 53s
Overall bit rate mode : Constant
Overall bit rate : 4 481 Kbps
Maximum Overall bit rate : 4 500 Kbps
Encoded date : UTC 2012-08-14 18:52:04.725

Video
ID : 2
Format : VC-1
Format profile : Main
Codec ID : WMV3
Codec ID/Info : Windows Media Video 9
Codec ID/Hint : WMV3
Description of the codec : VC-1 - VC-1 Main Profile
Duration : 25mn 53s
Bit rate mode : Constant
Bit rate : 4 400 Kbps
Width : 1 280 pixels
Height : 720 pixels
Display aspect ratio : 16:9
Frame rate : 25.000 fps
Bit depth : 8 bits
Scan type : Progressive
Compression mode : Lossy
Bits/(Pixel*Frame) : 0.191
Stream size : 815 MiB (98%)
Language : English (GB)

Audio
ID : 1
Format : WMA
Format version : Version 2
Codec ID : 161
Codec ID/Info : Windows Media Audio
Description of the codec : Windows Media Audio 9.2 - 63 kbps, 48 kHz, stereo Low Delay 1-pass CBR
Duration : 25mn 53s
Bit rate mode : Constant
Bit rate : 63.0 Kbps
Channel(s) : 2 channels
Sampling rate : 48.0 KHz
Bit depth : 16 bits
Stream size : 11.7 MiB (1%)
Language : English (GB)
Трекер:  [ 08-Сен-2012 16:02 ]

Размер .torrent файла 16 KB


Размер: 830 MB
Хэш (hash) релиза: 46d757777e3449d6f2f819fc794d7aceb7eb18c6
Подписка на обновления:

Еще никто не оставлял запись к записи скачать торрент Roxy and Kacie . Будь первым!

!Обратная связь
//main.js show_panel