Статистика раздачи
Размер:  878 MB   |    Зарегистрирован:  1 год 9 месяцев   |    .torrent скачан:  125 раз   |   

Пиры будут получены при скачивании

 

Скачать порно Helter Skelter: Hakudaku no Mura / Хелтер Скелтер: Тёмная деревня через торрент бесплатно :: UnionPron.org

 
 
Автор Сообщение

Sakura

avatar Sakura


Helter Skelter: Hakudaku no Mura
ヘルタースケルター ~白濁の村~
Хелтер Скелтер: Тёмная деревня

Год выпуска: 2014
Жанр: rape, virgin, big breast, anal, oral, group, paizuri, swimsuit
Серии: ep. 3-4 of 4
Продолжительность: 2*29mn
Цензура: Есть во всех файлах

Озвучка: Японская оригинальная
Субтитры: Русские [hentaiz.org] внешние ASS
Субтитры: Английские [EROBEAT-LQ] внешние ASS

Режиссер: Yokoyama Hiromi
Автор оригинала: Guilty
Студия: Suzuki Mirano

Описание: Знали ли четверо героинь, что поездка на отдых обернется совсем не тем, о чем они мечтали? Ловушка захлопнулась и выхода из нее для них уже нет...

Доп. информация: Перетянул сабы.

Качество видео: BDrip [erokuni]
Разрешение видео: 1080p
Формат видео: MKV
Видео: 1920-1080, 16-9, 24 fps, AVC, ~2 mbps
Аудио: jpn, AAC, Stereo, 48.0 KHz, 144 kbps
General
Unique ID : 174271143134595718539856084758016114862 (0x831B66BBA2073FFAB5D74843727940AE)
Complete name : Helter_skelter_-_Hakudaku_no_mura_03_[BDrip][erokuni][2CA03F4C].mkv
Format : Matroska
Format version : Version 4 / Version 2
File size : 417 MiB
Duration : 27 min 52 s
Overall bit rate : 2 091 kb/s
Encoded date : UTC 2017-07-12 08:59:07
Writing application : mkvmerge v10.0.0 (''To Drown In You'') 64bit
Writing library : libebml v1.3.4 + libmatroska v1.4.5

Video
ID : 1
Format : AVC
Format/Info : Advanced Video Codec
Format profile : High 10@L5.1
Format settings, CABAC : Yes
Format settings, ReFrames : 16 frames
Codec ID : V_MPEG4/ISO/AVC
Duration : 27 min 52 s
Bit rate : 1 944 kb/s
Width : 1 920 pixels
Height : 1 080 pixels
Display aspect ratio : 16:9
Frame rate mode : Constant
Frame rate : 24.000 FPS
Color space : YUV
Chroma subsampling : 4:2:0
Bit depth : 10 bits
Scan type : Progressive
Bits/(Pixel*Frame) : 0.039
Stream size : 387 MiB (93%)
Writing library : x264 core 133 r2334 a3ac64b
Encoding settings : cabac=1 / ref=16 / deblock=1:0:0 / analyse=0x3:0x113 / me=umh / subme=11 / psy=1 / psy_rd=1.00:0.00 / mixed_ref=1 / me_range=16 / chroma_me=1 / trellis=2 / 8x8dct=1 / cqm=0 / deadzone=21,11 / fast_pskip=1 / chroma_qp_offset=-2 / threads=12 / lookahead_threads=1 / sliced_threads=0 / nr=0 / decimate=1 / interlaced=0 / bluray_compat=0 / constrained_intra=0 / bframes=3 / b_pyramid=2 / b_adapt=2 / b_bias=0 / direct=3 / weightb=1 / open_gop=0 / weightp=2 / keyint=240 / keyint_min=24 / scenecut=40 / intra_refresh=0 / rc_lookahead=50 / rc=crf / mbtree=1 / crf=18.0 / qcomp=0.60 / qpmin=0 / qpmax=81 / qpstep=4 / ip_ratio=1.40 / aq=1:1.00
Default : Yes
Forced : No

Audio
ID : 2
Format : AAC
Format/Info : Advanced Audio Codec
Format profile : LC
Codec ID : A_AAC
Duration : 27 min 52 s
Bit rate : 144 kb/s
Channel(s) : 2 channels
Channel positions : Front: L R
Sampling rate : 48.0 kHz
Frame rate : 46.875 FPS (1024 spf)
Compression mode : Lossy
Delay relative to video : 9 ms
Stream size : 29.0 MiB (7%)
Default : Yes
Forced : No
От [url=...1296306]AcDie[/url] – там апскейл первые две серии, здесь бдрип последние две серии.
От [url=...2122722]BleedPaladin[/url] – там двдрип все серии, здесь бдрип последние две серии.
[url=...6452186] [/url]
Трекер:  [ 15-Июл-2017 19:00 ]

Размер .torrent файла 18 KB


Размер: 878 MB
Хэш (hash) релиза: 620679d3678b03bd984440f35cd65507369a05c0
Подписка на обновления:

Еще никто не оставлял запись к записи скачать торрент Helter Skelter: Hakudaku no Mura Хелтер Скелтер: Тёмная деревня . Будь первым!

!Обратная связь
//main.js show_panel