Статистика раздачи
Размер:  17.6 GB   |    Зарегистрирован:  4 года 1 месяц   |    .torrent скачан:  48 раз   |   

Пиры будут получены при скачивании

 

Скачать порно Любовь моя / Monamour MVO + Eng + Original Ita + Sub Rus, Eng через торрент бесплатно :: UnionPron.org

 
 
Автор Сообщение

Sakura

avatar Sakura


Любовь моя / [i]Monamour[/i]
Страна: Италия
Жанр: эротика, мелодрама
Год выпуска: 2005
Продолжительность: 01:38:19
Перевод: Многоголосый закадровый
Оригинальная аудиодорожка: итальянский
Cубтитры: русские, английские
Режиссер: Тинто Брасс / Tinto Brass
В ролях: Анна Жимская, Риккардо Марино, Марио Пароди, Нела Лучич, Lucia Lucchesino, Вирджиния Бэррет, Лео Мантовани, Массимо Карадонна, Федерико Чезарео, Маттео Андреотти
Описание: Это история любви девушки из Венеции по имени Марта и француза Леона. Всего пять дней длится роман между Мартой и Леоном и их чувства с каждым днем становясь все сильнее. Но у Марты есть муж, который догадывается об увлечении своей жены...
Тип релиза: BDRemux 1080p
Контейнер: MKV

Видео: 1920x1080 at 23.976 fps, MPEG-4 AVC, ~24577 kbps avg
Аудио 1: Russian: 48 kHz, AC3, 3/2 (L,C,R,l,r) + LFE ch, ~384.00 kbps avg
Аудио 2: Italian: 48 kHz, AC3, 3/2 (L,C,R,l,r) + LFE ch, ~448.00 kbps avg
Аудио 2: English: 48 kHz, AC3, 2/0 (L,R) ch, ~192.00 kbps avg
Главы: Есть
General

Complete name : 2005_MONAMOUR_BDREMUX.mkv
Format : Matroska
Format version : Version 4 / Version 2
File size : 17.6 GiB
Duration : 1 h 38 min
Overall bit rate mode : Variable
Overall bit rate : 25.6 Mb/s
Encoded date : UTC 2017-05-15 09:07:15
Writing application : mkvmerge v9.7.1 (''Pandemonium'') 64bit
Writing library : libebml v1.3.4 + libmatroska v1.4.5
Cover : Yes
Attachments : cover.jpg

Video
ID : 1
Format : AVC
Format/Info : Advanced Video Codec
Format profile : High@L4.1
Format settings, CABAC : Yes
Format settings, ReFrames : 4 frames
Format settings, GOP : M=3, N=24
Codec ID : V_MPEG4/ISO/AVC
Duration : 1 h 38 min
Bit rate mode : Variable
Bit rate : 24.6 Mb/s
Maximum bit rate : 35.0 Mb/s
Width : 1 920 pixels
Height : 1 080 pixels
Display aspect ratio : 16:9
Frame rate mode : Constant
Frame rate : 23.976 (24000/1001) FPS
Standard : NTSC
Color space : YUV
Chroma subsampling : 4:2:0
Bit depth : 8 bits
Scan type : Progressive
Bits/(Pixel*Frame) : 0.494
Stream size : 16.9 GiB (96%)
Title : 2005 - Monamour (BD-Remux 1080p)
Language : Italian
Default : Yes
Forced : No
Color range : Limited
Color primaries : BT.709
Transfer characteristics : BT.709
Matrix coefficients : BT.709

Audio #1
ID : 2
Format : AC-3
Format/Info : Audio Coding 3
Mode extension : CM (complete main)
Format settings, Endianness : Big
Codec ID : A_AC3
Duration : 1 h 38 min
Bit rate mode : Constant
Bit rate : 384 kb/s
Channel(s) : 6 channels
Channel positions : Front: L C R, Side: L R, LFE
Sampling rate : 48.0 kHz
Frame rate : 31.250 FPS (1536 spf)
Bit depth : 16 bits
Compression mode : Lossy
Stream size : 270 MiB (1%)
Title : MVO - Многоголосый закадровый
Language : Russian
Default : Yes
Forced : No

Audio #2
ID : 3
Format : AC-3
Format/Info : Audio Coding 3
Mode extension : CM (complete main)
Format settings, Endianness : Big
Codec ID : A_AC3
Duration : 1 h 38 min
Bit rate mode : Constant
Bit rate : 192 kb/s
Channel(s) : 2 channels
Channel positions : Front: L R
Sampling rate : 48.0 kHz
Frame rate : 31.250 FPS (1536 spf)
Bit depth : 16 bits
Compression mode : Lossy
Stream size : 135 MiB (1%)
Title : Английский
Language : English
Default : No
Forced : No

Audio #3
ID : 4
Format : AC-3
Format/Info : Audio Coding 3
Mode extension : CM (complete main)
Format settings, Endianness : Big
Codec ID : A_AC3
Duration : 1 h 38 min
Bit rate mode : Constant
Bit rate : 448 kb/s
Channel(s) : 6 channels
Channel positions : Front: L C R, Side: L R, LFE
Sampling rate : 48.0 kHz
Frame rate : 31.250 FPS (1536 spf)
Bit depth : 16 bits
Compression mode : Lossy
Stream size : 315 MiB (2%)
Title : Оригинальный
Language : Italian
Default : No
Forced : No

Text #1
ID : 5
Format : PGS
Muxing mode : zlib
Codec ID : S_HDMV/PGS
Codec ID/Info : Picture based subtitle format used on BDs/HD-DVDs
Duration : 1 h 36 min
Bit rate : 11.4 kb/s
Count of elements : 1182
Stream size : 7.88 MiB (0%)
Title : Русские субтитры
Language : Russian
Default : No
Forced : No

Text #2
ID : 6
Format : PGS
Muxing mode : zlib
Codec ID : S_HDMV/PGS
Codec ID/Info : Picture based subtitle format used on BDs/HD-DVDs
Duration : 1 h 34 min
Bit rate : 9 404 b/s
Count of elements : 1483
Stream size : 6.38 MiB (0%)
Title : Английские субтитры
Language : English
Default : No
Forced : No

Menu
00:00:00.000 : en:Chapter 1
00:07:04.549 : en:Chapter 2
00:14:15.271 : en:Chapter 3
00:21:39.506 : en:Chapter 4
00:36:50.875 : en:Chapter 5
00:45:15.087 : en:Chapter 6
00:51:22.537 : en:Chapter 7
01:00:48.186 : en:Chapter 8
01:07:48.397 : en:Chapter 9
01:10:44.698 : en:Chapter 10
01:25:37.507 : en:Chapter 11
01:33:19.385 : en:Chapter 12
1975 [url=...2315582]Салон Китти[/url]
1979 [url=...2017729]Калигула[/url]
1983 [url=...2315584]Ключ[/url]
1991 [url=...2315586]Все леди делают это[/url]
1991 [url=...2315587]Паприка[/url]
1993 [url=...2315591]Подглядывающий[/url]
1998 [url=...2315596]Шалунья[/url]
2000 [url=...2275677]Нарушая запреты[/url]
2003 [url=...2315600]Черный Ангел[/url]
2003 [url=...2315603]О, Женщины[/url]
2005 [url=...2315604]Любовь моя[/url]
Трекер:  [ 15-Май-2017 16:30 ]

Размер .torrent файла 44 KB


Размер: 17.6 GB
Хэш (hash) релиза: 3530bdb498284e660c940f0937104d775e67ae43
Подписка на обновления:

Еще никто не оставлял запись к записи скачать торрент Любовь моя Monamour . Будь первым!

!Обратная связь
//main.js show_panel