Статистика раздачи
Размер:  18.56 GB   |    Зарегистрирован:  4 года 1 месяц   |    .torrent скачан:  34 раза   |   

Пиры будут получены при скачивании

 

Скачать порно Черный Ангел - Black Angel / Senso '45 DVO + Original Ita + Sub Rus, Eng через торрент бесплатно :: UnionPron.org

 
 
Автор Сообщение

Sakura

avatar Sakura


Черный Ангел / [i]Black Angel / Senso ''45[/i]
Страна: Италия
Жанр: эротика, мелодрама, триллер
Год выпуска: 2003
Продолжительность: 02:07:23
Перевод: Двухголосый закадровый
Оригинальная аудиодорожка: итальянский
Cубтитры: русские, английские
Режиссер: Тинто Брасс / Tinto Brass
В ролях: Анна Гальена, Габриель Гарко, Франко Бранчароли, Антонио Салинес, Симона Бориони, Лоредана Канната, Эрика Савастани, Сабрина Колле, Агостино Нани, Джулия Де Греси
Описание: Италия, март 1945 года. Фашистская империя доживает свои последние дни. Среди хаоса и неразберихи, царящих в стране, очаровательная супруга высокопостав-ленного чиновника Ливия Маццони решает во что бы то ни стало разыскать лейтенанта СС Хельмута Шульца, с которым она когда-то пережила бурный любовный роман.
Дав волю переполняющим ее эмоциям и сексуальным инстинктам, героиня попадает в бешеный водоворот любовных приключений и эротических переживаний, которые приводят её в Венецию - город роскоши и свободной любви.

Тип релиза: BDRemux 1080p
Контейнер: MKV

Видео: 1920x1080 at 23.976 fps, MPEG-4 AVC, ~19937 kbps avg
Аудио 1: Russian: 48 kHz, AC3, 5.1, ~448.00 kbps avg
Аудио 2: Italian: 48 kHz, AC3, 5.1, ~448.00 kbps avg
Главы: Есть
General

Complete name : 2002_SENSO_45_BDREMUX.mkv
Format : Matroska
Format version : Version 4 / Version 2
File size : 18.6 GiB
Duration : 2 h 7 min
Overall bit rate mode : Variable
Overall bit rate : 20.9 Mb/s
Encoded date : UTC 2017-05-15 10:05:57
Writing application : mkvmerge v9.7.1 (''Pandemonium'') 64bit
Writing library : libebml v1.3.4 + libmatroska v1.4.5
Cover : Yes
Attachments : cover.jpg

Video
ID : 1
Format : AVC
Format/Info : Advanced Video Codec
Format profile : High@L4.1
Format settings, CABAC : Yes
Format settings, ReFrames : 3 frames
Codec ID : V_MPEG4/ISO/AVC
Duration : 2 h 7 min
Bit rate mode : Variable
Bit rate : 20.0 Mb/s
Maximum bit rate : 39.0 Mb/s
Width : 1 920 pixels
Height : 1 080 pixels
Display aspect ratio : 16:9
Frame rate mode : Constant
Frame rate : 24.000 FPS
Original frame rate : 23.976 (24000/1001) FPS
Color space : YUV
Chroma subsampling : 4:2:0
Bit depth : 8 bits
Scan type : Progressive
Bits/(Pixel*Frame) : 0.401
Stream size : 17.7 GiB (96%)
Title : 2002 - Black Angel (BDRemux 1080p)
Language : Italian
Default : Yes
Forced : No
Color range : Limited
Color primaries : BT.709
Transfer characteristics : BT.709
Matrix coefficients : BT.709

Audio #1
ID : 2
Format : AC-3
Format/Info : Audio Coding 3
Mode extension : CM (complete main)
Format settings, Endianness : Big
Codec ID : A_AC3
Duration : 2 h 7 min
Bit rate mode : Constant
Bit rate : 448 kb/s
Channel(s) : 6 channels
Channel positions : Front: L C R, Side: L R, LFE
Sampling rate : 48.0 kHz
Frame rate : 31.250 FPS (1536 spf)
Bit depth : 16 bits
Compression mode : Lossy
Stream size : 408 MiB (2%)
Title : DVO - Двухголосый закадровый
Language : Russian
Default : Yes
Forced : No

Audio #2
ID : 3
Format : AC-3
Format/Info : Audio Coding 3
Mode extension : CM (complete main)
Format settings, Endianness : Big
Codec ID : A_AC3
Duration : 2 h 7 min
Bit rate mode : Constant
Bit rate : 448 kb/s
Channel(s) : 6 channels
Channel positions : Front: L C R, Side: L R, LFE
Sampling rate : 48.0 kHz
Frame rate : 31.250 FPS (1536 spf)
Bit depth : 16 bits
Compression mode : Lossy
Stream size : 408 MiB (2%)
Title : Оригинальный
Language : Italian
Default : No
Forced : No

Text #1
ID : 4
Format : PGS
Muxing mode : zlib
Codec ID : S_HDMV/PGS
Codec ID/Info : Picture based subtitle format used on BDs/HD-DVDs
Duration : 2 h 3 min
Bit rate : 11.6 kb/s
Count of elements : 1698
Stream size : 10.2 MiB (0%)
Title : Русские субтитры
Language : Russian
Default : No
Forced : No

Text #2
ID : 5
Format : PGS
Muxing mode : zlib
Codec ID : S_HDMV/PGS
Codec ID/Info : Picture based subtitle format used on BDs/HD-DVDs
Duration : 2 h 3 min
Bit rate : 10.9 kb/s
Count of elements : 1936
Stream size : 9.68 MiB (0%)
Title : Английские субтитры
Language : English
Default : No
Forced : No

Menu
00:00:00.000 : en:Chapter 1
00:13:31.811 : en:Chapter 2
00:33:17.370 : en:Chapter 3
00:48:44.755 : en:Chapter 4
01:01:12.293 : en:Chapter 5
01:12:32.555 : en:Chapter 6
01:30:35.095 : en:Chapter 7
01:46:24.211 : en:Chapter 8
01:53:43.691 : en:Chapter 9
Трекер:  [ 15-Май-2017 16:00 ]

Размер .torrent файла 47 KB


Размер: 18.56 GB
Хэш (hash) релиза: bc9eaddb819e46d313c5367c313f59986a4aa3ca
Подписка на обновления:

Еще никто не оставлял запись к записи скачать торрент Черный Ангел - Black Angel Senso '45 . Будь первым!

!Обратная связь
//main.js show_panel