Статистика раздачи
Размер:  15.72 GB   |    Зарегистрирован:  4 года 1 месяц   |    .torrent скачан:  94 раза   |   

Пиры будут получены при скачивании

 

Скачать порно О, Женщины / Fallo / Private MVO + Original Ita + Sub Rus через торрент бесплатно :: UnionPron.org

 
 
Автор Сообщение

Sakura

avatar Sakura


О, Женщины / [i]Fallo! / Private[/i]
Страна: Италия
Жанр: эротика, мелодрама, комедия
Год выпуска: 2003
Продолжительность: 01:28:53
Перевод: Многоголосый закадровый
Оригинальная аудиодорожка: итальянский
Cубтитры: русские
Режиссер: Тинто Брасс / Tinto Brass
В ролях: Сара Косми, Массимилиано Каролетти, Уильям Де Вито, Гульельмо Ару, Сильвия Росси, Федерика Томмази, Марио Пароди, Андреа Нобили, Раффаелла Понцо, Стефано Гандольфо
Описание: Шесть комедийных эротических эпизодов о влюбленных парах, наскучивших друг другу…
Тип релиза: BDRemux 1080p
Контейнер: MKV

Видео: MPEG-4 AVC Video / 24917 kbps / 1920х1080 / 23.976 fps
Аудио 1: Russian / Dolby Digital Audio / 2.0 / 48 kHz / 192 kbps / DN -4dB
Аудио 2: Italian / Dolby Digital Audio / 2.0 / 48 kHz / 192 kbps / DN -4dB
Главы: Есть
General

Complete name : 2003_FALLO_BDREMUX.mkv
Format : Matroska
Format version : Version 4 / Version 2
File size : 15.7 GiB
Duration : 1 h 28 min
Overall bit rate mode : Variable
Overall bit rate : 25.3 Mb/s
Encoded date : UTC 2017-05-15 08:34:40
Writing application : mkvmerge v9.7.1 (''Pandemonium'') 64bit
Writing library : libebml v1.3.4 + libmatroska v1.4.5
Cover : Yes
Attachments : cover.jpg

Video
ID : 1
Format : AVC
Format/Info : Advanced Video Codec
Format profile : High@L4.1
Format settings, CABAC : Yes
Format settings, ReFrames : 4 frames
Format settings, GOP : M=3, N=24
Codec ID : V_MPEG4/ISO/AVC
Duration : 1 h 28 min
Bit rate mode : Variable
Bit rate : 24.9 Mb/s
Maximum bit rate : 35.0 Mb/s
Width : 1 920 pixels
Height : 1 080 pixels
Display aspect ratio : 16:9
Frame rate mode : Constant
Frame rate : 23.976 (24000/1001) FPS
Standard : NTSC
Color space : YUV
Chroma subsampling : 4:2:0
Bit depth : 8 bits
Scan type : Progressive
Bits/(Pixel*Frame) : 0.501
Stream size : 15.5 GiB (98%)
Title : 2003 - Fallo! (BDRemux 1080p)
Language : Italian
Default : Yes
Forced : No
Color range : Limited
Color primaries : BT.709
Transfer characteristics : BT.709
Matrix coefficients : BT.709

Audio #1
ID : 2
Format : AC-3
Format/Info : Audio Coding 3
Mode extension : CM (complete main)
Format settings, Endianness : Big
Codec ID : A_AC3
Duration : 1 h 28 min
Bit rate mode : Constant
Bit rate : 192 kb/s
Channel(s) : 2 channels
Channel positions : Front: L R
Sampling rate : 48.0 kHz
Frame rate : 31.250 FPS (1536 spf)
Bit depth : 16 bits
Compression mode : Lossy
Stream size : 122 MiB (1%)
Title : MVO - Многолосый закадровый
Language : Russian
Default : Yes
Forced : No

Audio #2
ID : 3
Format : AC-3
Format/Info : Audio Coding 3
Mode extension : CM (complete main)
Format settings, Endianness : Big
Codec ID : A_AC3
Duration : 1 h 28 min
Bit rate mode : Constant
Bit rate : 192 kb/s
Channel(s) : 2 channels
Channel positions : Front: L R
Sampling rate : 48.0 kHz
Frame rate : 31.250 FPS (1536 spf)
Bit depth : 16 bits
Compression mode : Lossy
Stream size : 122 MiB (1%)
Title : Оригинальный
Language : Italian
Default : No
Forced : No

Text
ID : 4
Format : PGS
Muxing mode : zlib
Codec ID : S_HDMV/PGS
Codec ID/Info : Picture based subtitle format used on BDs/HD-DVDs
Duration : 1 h 26 min
Bit rate : 13.6 kb/s
Count of elements : 1596
Stream size : 8.46 MiB (0%)
Title : Русские субтитры
Language : Russian
Default : No
Forced : No

Menu
00:00:00.000 : en:Chapter 1
00:18:54.550 : en:Chapter 2
00:30:38.795 : en:Chapter 3
00:42:17.243 : en:Chapter 4
00:52:18.760 : en:Chapter 5
01:12:54.244 : en:Chapter 6
Трекер:  [ 15-Май-2017 16:00 ]

Размер .torrent файла 39 KB


Размер: 15.72 GB
Хэш (hash) релиза: e6d1988379d173710108ff5f76f19dffe0a66c33
Подписка на обновления:

Еще никто не оставлял запись к записи скачать торрент О, Женщины Fallo . Будь первым!

!Обратная связь
//main.js show_panel