Статистика раздачи
Размер:  32.88 GB   |    Зарегистрирован:  4 года 1 месяц   |    .torrent скачан:  40 раз   |   

Пиры будут получены при скачивании

 

Скачать порно Салон Китти / Salon Kitty DVO + Eng + Original Ita + Sub Eng через торрент бесплатно :: UnionPron.org

 
 
Автор Сообщение

Sakura

avatar Sakura


Салон Китти / [i]SALON KITTY[/i]
«Бордель нацистской Германии»
Страна: Италия, Германия (ФРГ), Франция
Жанр: эротика, драма
Год выпуска: 1975
Продолжительность: 02:13:11
Перевод: Двухголосый закадровый, R5 Союз Видео
Оригинальная аудиодорожка: итальянский
Cубтитры: английские
Режиссер: Тинто Брасс / Tinto Brass
В ролях: Хельмут Бергер, Ингрид Тулин, Тереза Энн Савой, Джон Стайнер, Сара Сперати, Мария Мики, Розмари Линдт, Паола Сенаторе, Джон Айрленд, Тина Омон
Описание: Танцовщица Китти живет в нацистской Германии и содержит салон, куда приходят «расслабляться» высшие чины рейха. Их обслуживают девушки только чистейшей арийской крови. Они проходят строжайший отбор и обязаны повиноваться любым приказам высокопоставленного офицера СС Валленберга.
Повсюду в салоне расставлены потайные микрофоны и записывающие устройства, а девушкам приказано доносить о любом клиенте, кто хоть немного отклоняется от партийной линии.
Все идет хорошо, но лишь до тех пор, пока одна из девушек, любовница самого Валленберга Маргерита, не влюбляется в офицера люфтваффе, разочаровавшегося в идеях национал-социализма...

Тип релиза: BDRemux 1080p
Контейнер: MKV

Видео: 1920x1080 at 23.976 fps, MPEG-4 AVC, ~34200 kbps avg
Аудио 1: Russian: 48 kHz, AC3, 2/0, ~192.00 kbps avg
Аудио 2: English: 48 kHz/16-bit, DTS-HD MA, 1/0, ~1081 kbps avg
Аудио 3: Italian: 48 kHz/16-bit, DTS-HD MA, 1/0, ~1079 kbps avg
Главы: Есть
General

Complete name : 1976_SALON_KITTY_BDREMUX.mkv
Format : Matroska
Format version : Version 4 / Version 2
File size : 32.9 GiB
Duration : 2 h 13 min
Overall bit rate mode : Variable
Overall bit rate : 35.3 Mb/s
Encoded date : UTC 2017-05-15 07:40:16
Writing application : mkvmerge v9.7.1 (''Pandemonium'') 64bit
Writing library : libebml v1.3.4 + libmatroska v1.4.5
Cover : Yes
Attachments : cover.jpg

Video
ID : 1
Format : AVC
Format/Info : Advanced Video Codec
Format profile : High@L4.1
Format settings, CABAC : Yes
Format settings, ReFrames : 4 frames
Codec ID : V_MPEG4/ISO/AVC
Duration : 2 h 13 min
Bit rate mode : Variable
Bit rate : 33.0 Mb/s
Maximum bit rate : 39.0 Mb/s
Width : 1 920 pixels
Height : 1 080 pixels
Display aspect ratio : 16:9
Frame rate mode : Constant
Frame rate : 23.976 (24000/1001) FPS
Color space : YUV
Chroma subsampling : 4:2:0
Bit depth : 8 bits
Scan type : Progressive
Bits/(Pixel*Frame) : 0.663
Stream size : 30.7 GiB (93%)
Title : 1976 - Salon Kitty (BDRemux 1080p)
Language : Italian
Default : Yes
Forced : No
Color range : Limited
Color primaries : BT.709
Transfer characteristics : BT.709
Matrix coefficients : BT.709

Audio #1
ID : 2
Format : AC-3
Format/Info : Audio Coding 3
Mode extension : CM (complete main)
Format settings, Endianness : Big
Codec ID : A_AC3
Duration : 2 h 13 min
Bit rate mode : Constant
Bit rate : 192 kb/s
Channel(s) : 2 channels
Channel positions : Front: L R
Sampling rate : 48.0 kHz
Frame rate : 31.250 FPS (1536 spf)
Bit depth : 16 bits
Compression mode : Lossy
Stream size : 183 MiB (1%)
Title : DVO - Двухголосый закадровый
Language : Russian
Default : Yes
Forced : No

Audio #2
ID : 3
Format : DTS
Format/Info : Digital Theater Systems
Format profile : MA / Core
Mode : 16
Format settings, Endianness : Big
Codec ID : A_DTS
Duration : 2 h 13 min
Bit rate mode : Variable / Constant
Bit rate : 1 081 kb/s / 768 kb/s
Channel(s) : 1 channel
Channel positions : Front: C
Sampling rate : 48.0 kHz
Frame rate : 93.750 FPS (512 spf)
Bit depth : 24 bits
Compression mode : Lossless / Lossy
Stream size : 1.01 GiB (3%)
Title : Английский
Language : English
Default : No
Forced : No

Audio #3
ID : 4
Format : DTS
Format/Info : Digital Theater Systems
Format profile : MA / Core
Mode : 16
Format settings, Endianness : Big
Codec ID : A_DTS
Duration : 2 h 13 min
Bit rate mode : Variable / Constant
Bit rate : 1 079 kb/s / 768 kb/s
Channel(s) : 1 channel
Channel positions : Front: C
Sampling rate : 48.0 kHz
Frame rate : 93.750 FPS (512 spf)
Bit depth : 24 bits
Compression mode : Lossless / Lossy
Stream size : 1.00 GiB (3%)
Title : Оригинальный
Language : Italian
Default : No
Forced : No

Text
ID : 5
Format : PGS
Muxing mode : zlib
Codec ID : S_HDMV/PGS
Codec ID/Info : Picture based subtitle format used on BDs/HD-DVDs
Duration : 2 h 12 min
Bit rate : 20.3 kb/s
Count of elements : 2928
Stream size : 19.3 MiB (0%)
Title : Английские субтитры
Language : English
Default : No
Forced : No

Menu
00:00:00.000 : en:Chapter 1
00:04:03.534 : en:Chapter 2
00:08:34.222 : en:Chapter 3
00:13:32.478 : en:Chapter 4
00:17:13.866 : en:Chapter 5
00:20:23.180 : en:Chapter 6
00:25:01.541 : en:Chapter 7
00:31:41.357 : en:Chapter 8
00:35:01.474 : en:Chapter 9
00:39:09.930 : en:Chapter 10
00:44:40.594 : en:Chapter 11
00:49:30.842 : en:Chapter 12
00:53:29.748 : en:Chapter 13
00:59:27.230 : en:Chapter 14
01:03:41.025 : en:Chapter 15
01:06:42.373 : en:Chapter 16
01:15:59.554 : en:Chapter 17
01:19:57.334 : en:Chapter 18
01:23:11.861 : en:Chapter 19
01:28:04.737 : en:Chapter 20
01:32:02.975 : en:Chapter 21
01:35:48.033 : en:Chapter 22
01:42:20.676 : en:Chapter 23
01:46:24.044 : en:Chapter 24
01:51:35.438 : en:Chapter 25
01:57:15.903 : en:Chapter 26
02:01:53.180 : en:Chapter 27
02:04:10.359 : en:Chapter 28
02:09:55.996 : en:Chapter 29
Трекер:  [ 15-Май-2017 15:30 ]

Размер .torrent файла 82 KB


Размер: 32.88 GB
Хэш (hash) релиза: 5662d5f03107c0b81f2ae8c04e1810ba663a4b89
Подписка на обновления:

Еще никто не оставлял запись к записи скачать торрент Салон Китти Salon Kitty . Будь первым!

!Обратная связь
//main.js show_panel