Статистика раздачи
Размер:  21.9 GB   |    Зарегистрирован:  4 года 1 месяц   |    .torrent скачан:  44 раза   |   

Пиры будут получены при скачивании

 

Скачать порно Ключ / La Chiave / The Key DVO + Eng + Original Ita + Sub Eng через торрент бесплатно :: UnionPron.org

 
 
Автор Сообщение

Sakura

avatar Sakura


Ключ / [i]La Chiave / The Key[/i]
Страна: Италия
Жанр: эротика, драма
Год выпуска: 1991
Продолжительность: 01:50:49
Перевод: Профессиональный (двухголосый закадровый) [Студия Инис]
Оригинальная аудиодорожка: итальянский
Cубтитры: английские
Режиссер: Тинто Брасс / Tinto Brass
В ролях: Фрэнк Финлей, Стефания Сандрелли, Франко Бранчароли, Барбара Куписти, Мария Грация Бон, Джино Кавальери, Пьеро Бортолуцци, Ирма Файтен, Милли Коринальди, Джованни Микеланьоли
Описание: Пожилой профессор-искусствовед Нино и после двадцати лет брака безумно любит свою красавицу-жену Терезу. Но она моложе мужа на 18 лет и мечтает о Ласло, женихе их дочери Лизы. Нино мучается от ревности, что еще больше разжигает его страсть. Но доктор предупреждает профессора, что у него высокое давление, и занятия сексом ему противопоказаны.
Тогда Нино и Тереза начинают вести дневники, в которые записывают свои самые интимные мысли и желания. Супруги намеренно оставляют ключ от письменного стола так, чтобы каждый мог прочитать дневник другого. Узнав о том, что Тереза стала любовницей Ласло, Нино благословляет ее. Искренне благодарная мужу за понимание и мудрость, Тереза дарит ему потрясающую ночь любви...

Тип релиза: BDRemux 1080p
Контейнер: MKV

Видео: 1920x1080 at 23.976 fps, MPEG-4 AVC, ~25003 kbps avg
Аудио 1: Russian: 48 kHz, AC3, 2/0, ~224.00 kbps avg
Аудио 2: English: 48 kHz/16-bit, LPCM, 2/0, ~1536 kbps avg
Аудио 3: Italian: 48 kHz/16-bit, LPCM, 2/0, ~1536 kbps avg
Главы: Есть
General

Complete name : 1983_THE_KEY_BDREMUX.mkv
Format : Matroska
Format version : Version 4 / Version 2
File size : 21.9 GiB
Duration : 1 h 50 min
Overall bit rate mode : Variable
Overall bit rate : 28.3 Mb/s
Encoded date : UTC 2017-05-14 08:18:42
Writing application : mkvmerge v9.7.1 (''Pandemonium'') 64bit
Writing library : libebml v1.3.4 + libmatroska v1.4.5
Cover : Yes
Attachments : cover.jpg

Video
ID : 1
Format : AVC
Format/Info : Advanced Video Codec
Format profile : High@L4.1
Format settings, CABAC : Yes
Format settings, ReFrames : 4 frames
Format settings, GOP : M=3, N=12
Codec ID : V_MPEG4/ISO/AVC
Duration : 1 h 50 min
Bit rate mode : Variable
Bit rate : 25.0 Mb/s
Maximum bit rate : 30.0 Mb/s
Width : 1 920 pixels
Height : 1 080 pixels
Display aspect ratio : 16:9
Frame rate mode : Constant
Frame rate : 23.976 (24000/1001) FPS
Standard : NTSC
Color space : YUV
Chroma subsampling : 4:2:0
Bit depth : 8 bits
Scan type : Progressive
Bits/(Pixel*Frame) : 0.503
Stream size : 19.3 GiB (88%)
Title : 1983 - Ключ - La Chaive (BDRemux 1080p)
Language : Italian
Default : Yes
Forced : No
Color range : Limited
Color primaries : BT.709
Transfer characteristics : BT.709
Matrix coefficients : BT.709

Audio #1
ID : 2
Format : AC-3
Format/Info : Audio Coding 3
Mode extension : CM (complete main)
Format settings, Endianness : Big
Codec ID : A_AC3
Duration : 1 h 50 min
Bit rate mode : Constant
Bit rate : 224 kb/s
Channel(s) : 2 channels
Channel positions : Front: L R
Sampling rate : 48.0 kHz
Frame rate : 31.250 FPS (1536 spf)
Bit depth : 16 bits
Compression mode : Lossy
Stream size : 178 MiB (1%)
Title : DVO - Двухголосый закадровый
Language : Russian
Default : Yes
Forced : No

Audio #2
ID : 3
Format : PCM
Codec ID : A_PCM/INT/LIT
Duration : 1 h 50 min
Bit rate mode : Constant
Bit rate : 1 536 kb/s
Channel(s) : 2 channels
Sampling rate : 48.0 kHz
Frame rate : 200.000 FPS (240 spf)
Bit depth : 16 bits
Stream size : 1.19 GiB (5%)
Title : Английский
Language : English
Default : No
Forced : No

Audio #3
ID : 4
Format : PCM
Codec ID : A_PCM/INT/LIT
Duration : 1 h 50 min
Bit rate mode : Constant
Bit rate : 1 536 kb/s
Channel(s) : 2 channels
Sampling rate : 48.0 kHz
Frame rate : 200.000 FPS (240 spf)
Bit depth : 16 bits
Stream size : 1.19 GiB (5%)
Title : Оригинальный
Language : Italian
Default : No
Forced : No

Text
ID : 5
Format : PGS
Muxing mode : zlib
Codec ID : S_HDMV/PGS
Codec ID/Info : Picture based subtitle format used on BDs/HD-DVDs
Duration : 1 h 49 min
Bit rate : 7 790 b/s
Count of elements : 2166
Stream size : 6.10 MiB (0%)
Title : Английские субтитры
Language : English
Default : No
Forced : No

Menu
00:00:00.000 : en:Chapter 1
00:10:44.852 : en:Chapter 2
00:20:00.407 : en:Chapter 3
00:26:46.438 : en:Chapter 4
00:35:03.976 : en:Chapter 5
00:44:49.645 : en:Chapter 6
00:54:24.261 : en:Chapter 7
01:02:34.250 : en:Chapter 8
01:11:01.548 : en:Chapter 9
01:20:17.646 : en:Chapter 10
01:29:30.656 : en:Chapter 11
01:39:51.402 : en:Chapter 12
Трекер:  [ 15-Май-2017 15:30 ]

Размер .torrent файла 55 KB


Размер: 21.9 GB
Хэш (hash) релиза: 050b3e95f844e84c5283d238e4c63b3cb1b37d34
Подписка на обновления:

Еще никто не оставлял запись к записи скачать торрент Ключ La Chiave . Будь первым!

!Обратная связь
//main.js show_panel