Статистика раздачи
Размер:  19.4 GB   |    Зарегистрирован:  4 года 1 месяц   |    .torrent скачан:  49 раз   |   

Пиры будут получены при скачивании

 

Скачать порно Все леди делают это / Cosi' Fan Tutte / All Ladies Do It DVO + Original Ita + Sub Eng через торрент бесплатно :: UnionPron.org

 
 
Автор Сообщение

Sakura

avatar Sakura


Все леди делают это / [i]Cosi'' Fan Tutte / All Ladies Do It[/i]
Страна: Италия
Жанр: эротика, драма
Год выпуска: 1991
Продолжительность: 01:36:37
Перевод: Двухголосый закадровый
Оригинальная аудиодорожка: итальянский
Cубтитры: английские
Режиссер: Тинто Брасс / Tinto Brass
В ролях: Клаудия Колль, Паоло Ланца, Орнелла Маркуччи, Изабелла Деяна, Франко Бранчароли, Ренцо Ринальди, Маурицио Мартиноли, Жан Рене Лемойн, Марко Марчани, Россана Ди Пьерро
Описание: Диана счастлива в браке с Полом, но постоянно ищет наслаждений на «празднике плоти», нисколько не испытывая чувства вины перед мужем. Она и не собирается держать свои амурные похождения в тайне от него, считающего ее рассказы о сексуальных приключениях плодом воображения.
Эти «фантазии» возбуждают Пола и стимулируют супружеские любовные игры. И лишь когда Диана возвращается из короткой поездки в Венецию с отметинами от зубов на теле, в Поле начинает пробуждаться ревность… Он уходит из дома, не обращая внимания на многочисленные попытки Дианы помириться.
Но затем Пол приходит к выводу, что постоянство в сексуальной жизни - вещь неестественная, а строгие моральные принципы не стоят того, чтобы портить из-за них жизнь и лишать себя радостей любви…

Тип релиза: BDRemux 1080p
Контейнер: MKV

Видео: 1920x1080 at 23.976 fps, MPEG-4 AVC, ~26907 kbps avg
Аудио 1: Russian: 48 kHz, AC3, 2.0 (L,R) ch, 256 kbps avg
Аудио 2: Italian: 48 kHz/16-bit, DTS-HD MA 2.0, ~1570 kbps avg
Главы: Есть
General

Complete name : 1991_ALL_LADIES_DO_IT_BDREMUX.mkv
Format : Matroska
Format version : Version 4 / Version 2
File size : 19.4 GiB
Duration : 1 h 36 min
Overall bit rate : 28.7 Mb/s
Encoded date : UTC 2017-05-14 11:49:34
Writing application : mkvmerge v9.7.1 (''Pandemonium'') 64bit
Writing library : libebml v1.3.4 + libmatroska v1.4.5
Cover : Yes
Attachments : cover.jpg

Video
ID : 1
Format : AVC
Format/Info : Advanced Video Codec
Format profile : High@L4.1
Format settings, CABAC : Yes
Format settings, ReFrames : 4 frames
Codec ID : V_MPEG4/ISO/AVC
Duration : 1 h 36 min
Bit rate mode : Constant
Bit rate : 27.0 Mb/s
Width : 1 920 pixels
Height : 1 080 pixels
Display aspect ratio : 16:9
Frame rate mode : Constant
Frame rate : 23.976 (24000/1001) FPS
Standard : NTSC
Color space : YUV
Chroma subsampling : 4:2:0
Bit depth : 8 bits
Scan type : Progressive
Bits/(Pixel*Frame) : 0.543
Stream size : 18.2 GiB (94%)
Title : 1991 - All Ladies Do It (BDRemux 1080p)
Language : Italian
Default : Yes
Forced : No
Color range : Limited
Color primaries : BT.709
Transfer characteristics : BT.709
Matrix coefficients : BT.709

Audio #1
ID : 2
Format : AC-3
Format/Info : Audio Coding 3
Mode extension : CM (complete main)
Format settings, Endianness : Big
Codec ID : A_AC3
Duration : 1 h 36 min
Bit rate mode : Constant
Bit rate : 256 kb/s
Channel(s) : 2 channels
Channel positions : Front: L R
Sampling rate : 48.0 kHz
Frame rate : 31.250 FPS (1536 spf)
Bit depth : 16 bits
Compression mode : Lossy
Stream size : 177 MiB (1%)
Title : DVO - Двухголосый закадровый
Language : Russian
Default : Yes
Forced : No

Audio #2
ID : 3
Format : DTS
Format/Info : Digital Theater Systems
Format profile : MA / Core
Mode : 16
Format settings, Endianness : Big
Codec ID : A_DTS
Duration : 1 h 36 min
Bit rate mode : Variable / Constant
Bit rate : 1 570 kb/s / 1 509 kb/s
Channel(s) : 2 channels
Channel positions : Front: L R
Sampling rate : 48.0 kHz
Frame rate : 93.750 FPS (512 spf)
Bit depth : 16 bits
Compression mode : Lossless / Lossy
Stream size : 1.06 GiB (5%)
Title : Оригинальный
Language : Italian
Default : No
Forced : No

Text
ID : 4
Format : PGS
Muxing mode : zlib
Codec ID : S_HDMV/PGS
Codec ID/Info : Picture based subtitle format used on BDs/HD-DVDs
Duration : 1 h 34 min
Bit rate : 9 919 b/s
Count of elements : 2252
Stream size : 6.72 MiB (0%)
Title : Английские субтитры
Language : English
Default : No
Forced : No

Menu
00:00:00.000 : en:Chapter 1
00:08:57.162 : en:Chapter 2
00:15:54.412 : en:Chapter 3
00:23:52.473 : en:Chapter 4
00:31:36.103 : en:Chapter 5
00:40:37.935 : en:Chapter 6
00:46:00.216 : en:Chapter 7
00:53:20.989 : en:Chapter 8
01:03:06.950 : en:Chapter 9
01:09:19.822 : en:Chapter 10
01:21:07.154 : en:Chapter 11
01:29:00.252 : en:Chapter 12
Трекер:  [ 15-Май-2017 15:30 ]

Размер .torrent файла 49 KB


Размер: 19.4 GB
Хэш (hash) релиза: cc7554ab2824e54f778918ce069afcfbe0044240
Подписка на обновления:

Еще никто не оставлял запись к записи скачать торрент Все леди делают это Cosi' Fan Tutte . Будь первым!

!Обратная связь
//main.js show_panel