Статистика раздачи
Размер:  16.5 GB   |    Зарегистрирован:  4 года 1 месяц   |    .torrent скачан:  49 раз   |   

Пиры будут получены при скачивании

 

Скачать порно Паприка / Paprika DVO + Original Ita + Sub Rus, Eng через торрент бесплатно :: UnionPron.org

 
 
Автор Сообщение

Sakura

avatar Sakura


Паприка / [i]PAPRIKA[/i]
Страна: Италия
Жанр: эротика, мелодрама, комедия
Год выпуска: 1991
Продолжительность: 01:55:51
Перевод: Профессиональный (двухголосый закадровый)
Оригинальная аудиодорожка: итальянский
Cубтитры: русские, английские
Режиссер: Тинто Брасс / Tinto Brass
В ролях: Дебора Каприольо, Стефан Феррара, Мартина Брошар, Стефани Бонне, Россана Гавинель, Ренцо Ринальди, Нина Солдано, Клара Альгранти, Лучана Чиренеи, Джон Стайнер
Описание: Желая помочь своему жениху, Мима решает подзаработать в публичном доме. Наивная и рискованная затея вовлекает Миму в цепь эротических приключений, из которой не так-то легко выбраться. Но жених обманул ее и скрылся. Тогда девушка решает сделать свое временное занятие профессией всей жизни. Мима, за свой горячий нрав и необузданную чувственность прозванная Паприкой, кочует из борделя в бордель, и однажды судьба делает девушке роскошный подарок в лице эксцентричного аристократа, предложившего ей руку и сердце...
Тип релиза: BDRemux 1080p
Контейнер: MKV

Видео: MPEG-4 AVC Video / 20000 kbps / 1080p / 23.976 fps / 16:9 / High Profile 4.1
Аудио 1: Russian / Dolby Digital Audio / 2.0 / 48 kHz / 192 kbps
Аудио 2: Italian / Dolby Digital Audio / 2.0 / 48 kHz / 192 kbps
Формат субтитров: softsub (SRT)
Главы: Есть
General

Complete name : 1991_PAPRIKA_BDREMUX.mkv
Format : Matroska
Format version : Version 4 / Version 2
File size : 16.5 GiB
Duration : 1 h 55 min
Overall bit rate mode : Variable
Overall bit rate : 20.4 Mb/s
Encoded date : UTC 2017-05-14 06:30:48
Writing application : mkvmerge v9.7.1 (''Pandemonium'') 64bit
Writing library : libebml v1.3.4 + libmatroska v1.4.5
Cover : Yes
Attachments : Cover.jpg

Video
ID : 1
Format : AVC
Format/Info : Advanced Video Codec
Format profile : High@L4.1
Format settings, CABAC : Yes
Format settings, ReFrames : 4 frames
Format settings, GOP : M=3, N=18
Codec ID : V_MPEG4/ISO/AVC
Duration : 1 h 55 min
Bit rate mode : Variable
Bit rate : 20.0 Mb/s
Maximum bit rate : 30.0 Mb/s
Width : 1 920 pixels
Height : 1 080 pixels
Display aspect ratio : 16:9
Frame rate mode : Constant
Frame rate : 23.976 (24000/1001) FPS
Standard : NTSC
Color space : YUV
Chroma subsampling : 4:2:0
Bit depth : 8 bits
Scan type : Progressive
Bits/(Pixel*Frame) : 0.402
Stream size : 16.2 GiB (98%)
Title : 1991 - Paprika (BDRemux 1080p)
Language : Italian
Default : Yes
Forced : No
Color range : Limited
Color primaries : BT.709
Transfer characteristics : BT.709
Matrix coefficients : BT.709

Audio #1
ID : 2
Format : AC-3
Format/Info : Audio Coding 3
Mode extension : CM (complete main)
Format settings, Endianness : Big
Codec ID : A_AC3
Duration : 1 h 55 min
Bit rate mode : Constant
Bit rate : 192 kb/s
Channel(s) : 2 channels
Channel positions : Front: L R
Sampling rate : 48.0 kHz
Frame rate : 31.250 FPS (1536 spf)
Bit depth : 16 bits
Compression mode : Lossy
Stream size : 159 MiB (1%)
Title : DVO - Двухголосый закадровый
Language : Russian
Default : Yes
Forced : No

Audio #2
ID : 3
Format : AC-3
Format/Info : Audio Coding 3
Mode extension : CM (complete main)
Format settings, Endianness : Big
Codec ID : A_AC3
Duration : 1 h 55 min
Bit rate mode : Constant
Bit rate : 192 kb/s
Channel(s) : 2 channels
Channel positions : Front: L R
Sampling rate : 48.0 kHz
Frame rate : 31.250 FPS (1536 spf)
Bit depth : 16 bits
Compression mode : Lossy
Stream size : 159 MiB (1%)
Title : Оригинальный
Language : Italian
Default : No
Forced : No

Text #1
ID : 4
Format : UTF-8
Codec ID : S_TEXT/UTF8
Codec ID/Info : UTF-8 Plain Text
Duration : 1 h 54 min
Bit rate : 77 b/s
Count of elements : 946
Stream size : 64.7 KiB (0%)
Title : Русские субтитры
Language : Russian
Default : No
Forced : No

Text #2
ID : 5
Format : UTF-8
Codec ID : S_TEXT/UTF8
Codec ID/Info : UTF-8 Plain Text
Duration : 1 h 53 min
Bit rate : 39 b/s
Count of elements : 1065
Stream size : 32.7 KiB (0%)
Title : Английские субтитры
Language : English
Default : No
Forced : No

Menu
00:00:00.000 : en:00:00:00.000
00:11:48.249 : en:00:11:48.249
00:18:56.177 : en:00:18:56.177
00:27:10.087 : en:00:27:10.087
00:38:14.667 : en:00:38:14.667
00:51:11.485 : en:00:51:11.485
00:58:07.275 : en:00:58:07.275
01:09:22.116 : en:01:09:22.116
01:18:22.823 : en:01:18:22.823
01:29:18.770 : en:01:29:18.770
01:40:59.512 : en:01:40:59.512
01:53:43.316 : en:01:53:43.316






Трекер:  [ 15-Май-2017 15:30 ]

Размер .torrent файла 41 KB


Размер: 16.5 GB
Хэш (hash) релиза: 242f497fbf415621ff008c03df28c413d899bba0
Подписка на обновления:

Еще никто не оставлял запись к записи скачать торрент Паприка Paprika . Будь первым!

!Обратная связь
//main.js show_panel