Статистика раздачи
Размер:  14.4 GB   |    Зарегистрирован:  3 года 7 месяцев   |    .torrent скачан:  171 раз   |   

Пиры будут получены при скачивании

 

Скачать порно Wendy Muller . Обновление от 31.04.17 через торрент бесплатно :: UnionPron.org

 
 
Автор Сообщение

Sakura

avatar Sakura


Wendy Muller (23 ролика) (Angelica, Jos, Lucie, Lucie R, Lucie R., Monica, Roxie, Wendy)

Год производства: 2010 г.
Жанр: Straight, Teen, Hardcore, Anal, Oral
Описание: Давно хотел сделать по ней пак.
Та самая из кастинга Вудмана [url]...1144510[/url]
http://www.pornteengirl.com/model/wendy-2.html
http://www.indexxx.com/models/23651/angelica-1/

Доп. информация: Скриншоты в раздаче.
[straponcum.com]
https://yadi.sk/d/YK7qANVtetpc9
[18Onlygirls.com] Maria, Monica, Mia - A Bad Company.mp4

Тип потока: Видео
Длительность: 00:15:37
Кодек: AVC
Кодек/описание: Advanced Video Codec
Кодек/профиль: High@L3.1
Кодек/ID: avc1
Кодек/CABAC: Yes
Кодек/ReFrames: 2 frames
Размеры изображения: 1280 x 720 (16:9)
Частота кадров: 29.970 fps
Частота кадров/тип: Constant
Размер потока: 409 MiB (96%)
Битрейт: 3 663 Kbps

Тип потока: Звук #1
Длительность: 00:15:37.181
Кодек: AAC
Кодек/описание: Advanced Audio Codec
Кодек/профиль: LC
Кодек/ID: 40
Частота дискретизации: 44.1 KHz
Каналов: 2 channels
Битрейт: 150 Kbps
Битрейт/тип: Variable
Размер потока: 16.8 MiB (4%)
Метод сжатия: Lossy

Название: [Karupspc.com] Angelica - Awake and Sing .. FUCK!

Тип потока: Видео
Длительность: 00:16:35
Кодек: AVC
Кодек/описание: Advanced Video Codec
Кодек/профиль: Baseline@L3.1
Кодек/ID: avc1
Кодек/CABAC: No
Кодек/ReFrames: 3 frames
Размеры изображения: 1280 x 720 (16:9)
Частота кадров: 29.970 fps
Частота кадров/тип: Constant
Размер потока: 475 MiB (97%)
Битрейт: 4 001 Kbps
Битрейт/тип: VBR
Стандарт: Component
Цветовое пространство: YUV
Тип развёртки: Progressive
Колориметрия: 4:2:0
Глубина: 8 bits

Тип потока: Звук #1
Язык: English
Длительность: 00:16:35.762
Кодек: AAC
Кодек/описание: Advanced Audio Codec
Кодек/профиль: LC
Кодек/ID: 40
Частота дискретизации: 44.1 KHz
Каналов: 2 channels
Битрейт: 128 Kbps
Битрейт/тип: Variable
Размер потока: 15.2 MiB (3%)
Метод сжатия: Lossy

Название: [straponcum.com] 2010-10-07 Agnes & Roxie - Strap-on punishment for Agnes

Тип потока: Видео
Длительность: 00:19:12
Кодек: VC-1
Кодек/профиль: Advanced@L3
Кодек/ID: WVC1
Размеры изображения: 1280 x 720 (16:9)
Частота кадров: 25.000 fps
Размер потока: 807 MiB (97%)
Битрейт: 5 872 Kbps
Битрейт/тип: VBR
Метод сжатия: Lossy
Цветовое пространство: YUV
Тип развёртки: Progressive
Колориметрия: 4:2:0
Глубина: 8 bits

Тип потока: Звук #1
Язык: English (US)
Длительность: 00:19:12.870
Кодек: WMA
Кодек/ID: 161
Частота дискретизации: 44.1 KHz
Каналов: 2 channels
Битрейт: 139 Kbps
Битрейт/тип: Variable
Размер потока: 19.2 MiB (2%)
Глубина: 16 bits

Название: [straponcum.com] 2010-10-28 Agnes, Roxie, Gina - Hooters fantasy

Тип потока: Видео
Длительность: 00:32:14
Кодек: VC-1
Кодек/профиль: Advanced@L3
Кодек/ID: WVC1
Размеры изображения: 1280 x 720 (16:9)
Частота кадров: 50.000 fps
Размер потока: 1.37 GiB (97%)
Битрейт: 6 082 Kbps
Битрейт/тип: VBR
Метод сжатия: Lossy
Цветовое пространство: YUV
Тип развёртки: Progressive
Колориметрия: 4:2:0
Глубина: 8 bits

Тип потока: Звук #1
Язык: English (US)
Длительность: 00:32:14.640
Кодек: WMA
Кодек/ID: 161
Частота дискретизации: 44.1 KHz
Каналов: 2 channels
Битрейт: 140 Kbps
Битрейт/тип: Variable
Размер потока: 32.3 MiB (2%)
Глубина: 16 bits

Название: [straponcum.com] 2010-11-20 Agnes, Roxie - Ballerina strapon fucked!

Тип потока: Видео
Длительность: 00:21:21
Кодек: VC-1
Кодек/профиль: Advanced@L3
Кодек/ID: WVC1
Размеры изображения: 1280 x 720 (16:9)
Частота кадров: 50.000 fps
Размер потока: 929 MiB (97%)
Битрейт: 6 082 Kbps
Битрейт/тип: VBR
Метод сжатия: Lossy
Цветовое пространство: YUV
Тип развёртки: Progressive
Колориметрия: 4:2:0
Глубина: 8 bits

Тип потока: Звук #1
Язык: English (US)
Длительность: 00:21:21.040
Кодек: WMA
Кодек/ID: 161
Частота дискретизации: 44.1 KHz
Каналов: 2 channels
Битрейт: 142 Kbps
Битрейт/тип: Variable
Размер потока: 21.7 MiB (2%)
Глубина: 16 bits

Название: [straponcum.com] 2010-12-01 Roxie - Strapon Nun

Тип потока: Видео
Длительность: 00:11:00
Кодек: VC-1
Кодек/описание: Windows Media Video 9
Кодек/профиль: MP@HL
Кодек/ID: WMV3
Размеры изображения: 1280 x 720 (16:9)
Частота кадров: 50.000 fps
Размер потока: 630 MiB (99%)
Битрейт: 8 000 Kbps
Битрейт/тип: CBR
Метод сжатия: Lossy
Цветовое пространство: YUV
Тип развёртки: Progressive
Колориметрия: 4:2:0
Глубина: 8 bits

Тип потока: Звук #1
Длительность: 00:11:00.159
Кодек: WMA
Кодек/профиль: Pro
Кодек/ID: 162
Частота дискретизации: 44.1 KHz
Каналов: 2 channels
Битрейт: 256 Kbps
Битрейт/тип: Constant
Размер потока: 20.1 MiB (3%)
Глубина: 24 bits

Название: [straponcum.com] 2010-12-13 Roxie, Agnes - Oiled strapon play

Тип потока: Видео
Длительность: 00:19:53
Кодек: VC-1
Кодек/описание: Windows Media Video 9
Кодек/профиль: MP@HL
Кодек/ID: WMV3
Размеры изображения: 1280 x 720 (16:9)
Частота кадров: 50.000 fps
Размер потока: 1.11 GiB (97%)
Битрейт: 8 000 Kbps
Битрейт/тип: CBR
Метод сжатия: Lossy
Цветовое пространство: YUV
Тип развёртки: Progressive
Колориметрия: 4:2:0
Глубина: 8 bits

Тип потока: Звук #1
Длительность: 00:19:53.979
Кодек: WMA
Кодек/профиль: Pro
Кодек/ID: 162
Частота дискретизации: 44.1 KHz
Каналов: 2 channels
Битрейт: 256 Kbps
Битрейт/тип: Constant
Размер потока: 36.4 MiB (3%)
Глубина: 24 bits

Название: [straponcum.com] Roxie,... Strapon French Made 075

Тип потока: Видео
Длительность: 00:20:31
Кодек: VC-1
Кодек/описание: Windows Media Video 9
Кодек/профиль: MP@HL
Кодек/ID: WMV3
Размеры изображения: 1280 x 720 (16:9)
Частота кадров: 50.000 fps
Размер потока: 1.15 GiB (97%)
Битрейт: 8 000 Kbps
Битрейт/тип: CBR
Метод сжатия: Lossy
Цветовое пространство: YUV
Тип развёртки: Progressive
Колориметрия: 4:2:0
Глубина: 8 bits

Тип потока: Звук #1
Длительность: 00:20:31.578
Кодек: WMA
Кодек/профиль: Pro
Кодек/ID: 162
Частота дискретизации: 44.1 KHz
Каналов: 2 channels
Битрейт: 256 Kbps
Битрейт/тип: Constant
Размер потока: 37.6 MiB (3%)
Глубина: 24 bits

Название: [YoungLegalPorn.com] Mia, Monica, Vika and Beata

Тип потока: Видео
Длительность: 00:22:54
Кодек: AVC
Кодек/описание: Advanced Video Codec
Кодек/профиль: Baseline@L1.3
Кодек/ID: avc1
Кодек/CABAC: No
Кодек/ReFrames: 1 frame
Размеры изображения: 960 x 544 (16:9)
Частота кадров: 29.970 fps
Частота кадров/тип: Constant
Размер потока: 332 MiB (94%)
Битрейт: 2 036 Kbps
Битрейт/макс: 3 151 Kbps
Библиотека кодирования: x264 core 45 svn-467M
Цветовое пространство: YUV
Тип развёртки: Progressive
Колориметрия: 4:2:0
Глубина: 8 bits

Тип потока: Звук #1
Длительность: 00:22:54.165
Кодек: AAC
Кодек/описание: Advanced Audio Codec
Кодек/профиль: LC
Кодек/ID: 40
Частота дискретизации: 48.0 KHz
Каналов: 2 channels
Битрейт: 128 Kbps
Битрейт/тип: Variable
Размер потока: 21.0 MiB (6%)
Метод сжатия: Lossy

Название: 18OnlyGirls.100828.Monica.Vacation.Adventures.720p.XXX.WMV-NewBreed

Тип потока: Видео
Длительность: 00:20:03
Кодек: VC-1
Кодек/описание: Windows Media Video 9
Кодек/профиль: MP@HL
Кодек/ID: WMV3
Размеры изображения: 1280 x 720 (16:9)
Частота кадров: 29.970 fps
Размер потока: 781 MiB (96%)
Битрейт: 5 445 Kbps
Битрейт/тип: VBR
Метод сжатия: Lossy
Цветовое пространство: YUV
Тип развёртки: Progressive
Колориметрия: 4:2:0
Глубина: 8 bits

Тип потока: Звук #1
Язык: Russian
Длительность: 00:20:03.536
Кодек: WMA
Кодек/ID: 161
Частота дискретизации: 44.1 KHz
Каналов: 2 channels
Битрейт: 192 Kbps
Битрейт/тип: Constant
Размер потока: 27.6 MiB (3%)
Глубина: 16 bits

Название: FirstAnalQuest – Wendy

Тип потока: Видео
Длительность: 00:29:56
Кодек: WMV1
Кодек/описание: Windows Media Video 7
Кодек/ID: WMV1
Размеры изображения: 1280 x 720 (16:9)
Частота кадров: 29.970 fps
Размер потока: 966 MiB (97%)
Битрейт: 4 512 Kbps
Битрейт/тип: CBR
Глубина: 8 bits

Тип потока: Звук #1
Язык: Russian
Длительность: 00:29:56.526
Кодек: WMA
Кодек/ID: 161
Частота дискретизации: 44.1 KHz
Каналов: 2 channels
Битрейт: 96.0 Kbps
Битрейт/тип: Constant
Размер потока: 20.6 MiB (2%)
Глубина: 16 bits

Название: SeventeenVideo - Lucie R [720p]

Тип потока: Видео
Длительность: 00:22:24
Кодек: VC-1
Кодек/описание: Windows Media Video 9
Кодек/профиль: Main
Кодек/ID: WMV3
Размеры изображения: 1280 x 720 (16:9)
Частота кадров: 25.000 fps
Размер потока: 802 MiB (96%)
Битрейт: 5 000 Kbps
Метод сжатия: Lossy
Цветовое пространство: YUV
Тип развёртки: Progressive
Колориметрия: 4:2:0
Глубина: 8 bits

Тип потока: Звук #1
Длительность: 00:22:24.960
Кодек: WMA
Кодек/ID: 161
Частота дискретизации: 44.1 KHz
Каналов: 2 channels
Битрейт: 128 Kbps
Размер потока: 20.5 MiB (2%)
Глубина: 16 bits

Название: Teeny Threesomes

Тип потока: Видео
Длительность: 00:23:07
Кодек: MPEG-4 Visual
Кодек/профиль: Advanced Simple@L5
Кодек/ID: XVID
Размеры изображения: 512 x 368 (1.391)
Частота кадров: 25.000 fps
Размер потока: 255 MiB (93%)
Битрейт: 1 544 Kbps
Метод сжатия: Lossy
Библиотека кодирования: XviD 1.2.1 (UTC 2008-12-04)
Цветовое пространство: YUV
Тип развёртки: Progressive
Колориметрия: 4:2:0
Глубина: 8 bits

Тип потока: Звук #1
Длительность: 00:23:07.680
Кодек: MPEG Audio
Кодек/профиль: Layer 3
Кодек/ID: 55
Частота дискретизации: 48.0 KHz
Каналов: 2 channels
Битрейт: 109 Kbps
Битрейт/тип: Variable
Размер потока: 18.0 MiB (7%)
Метод сжатия: Lossy

Название: WENDY MULLER - WUNF 13

Тип потока: Видео
Длительность: 00:53:26
Кодек: VC-1
Кодек/описание: Windows Media Video 9
Кодек/профиль: MP@HL
Кодек/ID: WMV3
Размеры изображения: 1280 x 720 (16:9)
Частота кадров: 25.000 fps
Размер потока: 1.53 GiB (98%)
Битрейт: 4 096 Kbps
Битрейт/тип: CBR
Метод сжатия: Lossy
Цветовое пространство: YUV
Тип развёртки: Progressive
Колориметрия: 4:2:0
Глубина: 8 bits

Тип потока: Звук #1
Язык: Russian
Длительность: 00:53:26.072
Кодек: WMA
Кодек/ID: 161
Частота дискретизации: 44.1 KHz
Каналов: 2 channels
Битрейт: 64.0 Kbps
Битрейт/тип: Constant
Размер потока: 24.5 MiB (2%)
Глубина: 16 bits

Название: WoodmanCastingX.com - Wendy HD 720p

Тип потока: Видео
Длительность: 01:09:54
Кодек: WMV2
Кодек/описание: Windows Media Video 8
Кодек/ID: WMV2
Размеры изображения: 1280 x 720 (16:9)
Частота кадров: 25.000 fps
Размер потока: 1.50 GiB (92%)
Битрейт: 3 075 Kbps
Глубина: 8 bits

Тип потока: Звук #1
Длительность: 01:09:54.240
Кодек: WMA
Кодек/ID: 160
Частота дискретизации: 44.1 KHz
Каналов: 2 channels
Битрейт: 128 Kbps
Размер потока: 64.0 MiB (4%)
Глубина: 16 bits
Видео: MPEG-4 AVC 1280x720 29.970 fps 3 819 Kbps



[i]Видео: MPEG-4 AVC 1280x720 29.970 fps 4 133 Kbps



[i]Видео: Windows Media VC-1 1280x720 25.000 fps 6 038 Kbps



[i]Видео: Windows Media VC-1 1280x720 50.000 fps 6 252 Kbps



[i]Видео: Windows Media VC-1 1280x720 50.000 fps 6 255 Kbps



[i]Видео: Windows Media VC-1 1280x720 50.000 fps 8 079 Kbps



[i]Видео: Windows Media VC-1 1280x720 50.000 fps 8 208 Kbps



[i]Видео: Windows Media VC-1 1280x720 50.000 fps 8 207 Kbps



[i]Видео: MPEG-4 AVC 960x544 29.970 fps 2 157 Kbps



[i]Видео: Windows Media VC-1 1280x720 29.970 fps 5 666 Kbps



[i]Видео: Windows Media WMV1 1280x720 29.970 fps 4 632 Kbps



[i]Видео: Windows Media VC-1 1280x720 25.000 fps 5 191 Kbps



[i]Видео: AVI MPEG-4 Visual 512x368 25.000 fps 1 666 Kbps



[i]Видео: Windows Media VC-1 1280x720 25.000 fps 4 178 Kbps



[i]Видео: Windows Media WMV2 1280x720 25.000 fps 3 345 Kbps



[i]
Самый популярный релиз 2012 г.:
Бразильская модель и актриса Suelyn Medeiros в домашнем видео [url]...1566184[/url]
Эксклюзив! [Audio]. Реальные аудиозаписи секса (стоны, крики, мольбы, мат, разговоры) [url]...15590521#15590521[/url]
Эксклюзив!. Радиопередача "Секс в большом городе" с Семеном Чайкой [2007-2012 гг., Audio, Sex Talk, MP3]. Полный архив (575 выпусков). Все что вы хотели узнать о сексе, но боялись спросить.
[url]...1896658[/url]
Трекер:  [ 01-Апр-2017 22:30 ]

Размер .torrent файла 76 KB


Размер: 14.4 GB
Хэш (hash) релиза: 1eb9ac0dc598a4ee365d0d6a35ce9972d51366bd
Подписка на обновления:

Еще никто не оставлял запись к записи скачать торрент Wendy Muller . Будь первым!

!Обратная связь
//main.js show_panel