Статистика раздачи
Размер:  2.93 GB   |    Зарегистрирован:  4 года 3 месяца   |    .torrent скачан:  22 раза   |   

Пиры будут получены при скачивании

 

Скачать порно Krissy Lynn через торрент бесплатно :: UnionPron.org

 
 
Автор Сообщение

Sakura

avatar Sakura


Krissy Lynn & James Deen - The Superior Posterior



Имя актрисы: Krissy Lynn
Название ролика: The Superior Posterior
Номер на сайте: 5692

Год производства: 24 июня 2011 г.
Жанр: Anal, Big Tits, Blonde, Bubble Butt, Doggystyle (POV), Gonzo, Pool, Sex Toys
Продолжительность: 00:49:06

Описание: Krissy is horny as hell. She''s just minding her business, hanging out around the pool. But something is missing...a big cock. Lucky for her, her friend Tony has set up a playmate for her. When she goes back inside the house, she''s thrilled to find James Deen waiting for her. Time for some fun!

Тип HD видео: 1080p
Формат видео: MP4
Видео: MPEG4 Video (H264) 1920x1080 29.97fps 8016kbps
Аудио: AAC 48000Hz stereo 165kbps

General
Complete name : bwb_krissy_lynn03_1080p_8000.mp4
Format : MPEG-4
Format profile : Base Media
Codec ID : isom
File size : 2.93 GiB
Duration : 49mn 5s
Overall bit rate mode : Variable
Overall bit rate : 8 539 Kbps
Encoded date : UTC 1970-01-01 00:00:00
Tagged date : UTC 1970-01-01 00:00:00
Writing application : Lavf52.31.0

Video
ID : 1
Format : AVC
Format/Info : Advanced Video Codec
Format profile : High@L4
Format settings, CABAC : Yes
Format settings, ReFrames : 4 frames
Format settings, GOP : N=1
Codec ID : avc1
Codec ID/Info : Advanced Video Coding
Duration : 49mn 5s
Duration_FirstFrame : -100ms
Bit rate : 8 016 Kbps
Width : 1 920 pixels
Height : 1 080 pixels
Display aspect ratio : 16:9
Frame rate mode : Variable
Frame rate : 29.970 fps
Minimum frame rate : 7.493 fps
Maximum frame rate : 29.970 fps
Color space : YUV
Chroma subsampling : 4:2:0
Bit depth : 8 bits
Scan type : Progressive
Bits/(Pixel*Frame) : 0.129
Stream size : 2.75 GiB (94%)
Language : English
Encoded date : UTC 1970-01-01 00:00:00
Tagged date : UTC 2011-06-08 18:55:51

Audio
ID : 2
Format : AAC
Format/Info : Advanced Audio Codec
Format profile : LC
Codec ID : 40
Duration : 49mn 5s
Bit rate mode : Variable
Bit rate : 165 Kbps
Channel(s) : 2 channels
Channel positions : Front: L R
Sampling rate : 48.0 KHz
Compression mode : Lossy
Stream size : 58.1 MiB (2%)
Language : English
Encoded date : UTC 1970-01-01 00:00:00
Tagged date : UTC 2011-06-08 18:55:51

Other #1
ID : 65536
Type : Hint
Format : RTP
Codec ID : rtp
Duration : 49mn 5s
Encoded date : UTC 2011-06-08 18:51:16
Tagged date : UTC 2011-06-08 18:55:51
Duration_FirstFrame : -100

Other #2
ID : 65537
Type : Hint
Format : RTP
Codec ID : rtp
Duration : 49mn 5s
Encoded date : UTC 2011-06-08 18:55:49
Tagged date : UTC 2011-06-08 18:55:51
Bit rate mode : VBR
Трекер:  [ 15-Авг-2016 14:30 ]

Размер .torrent файла 15 KB


Размер: 2.93 GB
Хэш (hash) релиза: e35a58fb224d4cd5ee095a41f7c13c460a234d46
Подписка на обновления:

Еще никто не оставлял запись к записи скачать торрент Krissy Lynn . Будь первым!

!Обратная связь
//main.js show_panel