Статистика раздачи
Размер:  1.41 GB   |    Зарегистрирован:  4 года 3 месяца   |    .torrent скачан:  15 раз   |   

Пиры будут получены при скачивании

 

Скачать порно Krissy Lynn через торрент бесплатно :: UnionPron.org

 
 
Автор Сообщение

Sakura

avatar Sakura


Krissy Lynn & James Deen - The Superior Posterior



Имя актрисы: Krissy Lynn
Название ролика: The Superior Posterior
Номер на сайте: 5692

Год производства: 24 июня 2011 г.
Жанр: Anal, Big Tits, Blonde, Bubble Butt, Doggystyle (POV), Gonzo, Pool, Sex Toys
Продолжительность: 00:49:06

Описание: Krissy is horny as hell. She''s just minding her business, hanging out around the pool. But something is missing...a big cock. Lucky for her, her friend Tony has set up a playmate for her. When she goes back inside the house, she''s thrilled to find James Deen waiting for her. Time for some fun!

Тип HD видео: 720p
Формат видео: MP4
Видео: MPEG4 Video (H264) 1280x720 29.97fps 3799kbps
Аудио: AAC 48000Hz stereo 127kbps

General
Complete name : bwb_krissy_lynn03_720p_3800.mp4
Format : MPEG-4
Format profile : Base Media
Codec ID : isom
File size : 1.41 GiB
Duration : 49mn 5s
Overall bit rate mode : Variable
Overall bit rate : 4 107 Kbps
Encoded date : UTC 1970-01-01 00:00:00
Tagged date : UTC 1970-01-01 00:00:00
Writing application : Lavf52.32.0

Video
ID : 1
Format : AVC
Format/Info : Advanced Video Codec
Format profile : High@L3.1
Format settings, CABAC : Yes
Format settings, ReFrames : 4 frames
Codec ID : avc1
Codec ID/Info : Advanced Video Coding
Duration : 49mn 5s
Duration_FirstFrame : -100ms
Bit rate : 3 800 Kbps
Width : 1 280 pixels
Height : 720 pixels
Display aspect ratio : 16:9
Frame rate mode : Variable
Frame rate : 29.970 fps
Minimum frame rate : 7.493 fps
Maximum frame rate : 29.970 fps
Color space : YUV
Chroma subsampling : 4:2:0
Bit depth : 8 bits
Scan type : Progressive
Bits/(Pixel*Frame) : 0.138
Stream size : 1.30 GiB (93%)
Language : English
Encoded date : UTC 1970-01-01 00:00:00
Tagged date : UTC 2011-06-08 16:25:53

Audio
ID : 2
Format : AAC
Format/Info : Advanced Audio Codec
Format profile : LC
Codec ID : 40
Duration : 49mn 5s
Bit rate mode : Variable
Bit rate : 128 Kbps
Channel(s) : 2 channels
Channel positions : Front: L R
Sampling rate : 48.0 KHz
Compression mode : Lossy
Stream size : 44.9 MiB (3%)
Language : English
Encoded date : UTC 1970-01-01 00:00:00
Tagged date : UTC 2011-06-08 16:25:53

Other #1
ID : 65536
Type : Hint
Format : RTP
Codec ID : rtp
Duration : 49mn 5s
Encoded date : UTC 2011-06-08 15:27:34
Tagged date : UTC 2011-06-08 16:25:53
Duration_FirstFrame : -100

Other #2
ID : 65537
Type : Hint
Format : RTP
Codec ID : rtp
Duration : 49mn 5s
Encoded date : UTC 2011-06-08 16:25:51
Tagged date : UTC 2011-06-08 16:25:53
Bit rate mode : VBR
Трекер:  [ 15-Авг-2016 13:30 ]

Размер .torrent файла 14 KB


Размер: 1.41 GB
Хэш (hash) релиза: 25dfcaec29adf935b2d331efdc1d805185706c49
Подписка на обновления:

Еще никто не оставлял запись к записи скачать торрент Krissy Lynn . Будь первым!

!Обратная связь
//main.js show_panel