Статистика раздачи
Размер:  1.2 GB   |    Зарегистрирован:  4 года 3 месяца   |    .torrent скачан:  22 раза   |   

Пиры будут получены при скачивании

 

Скачать порно Krissy Lynn через торрент бесплатно :: UnionPron.org

 
 
Автор Сообщение

Sakura

avatar Sakura


Krissy Lynn & Keiran Lee - Take Me Seriously



Имя актрисы: Krissy Lynn
Название ролика: Take Me Seriously
Номер на сайте: 5569

Год производства: 6 августа 2011 г.
Жанр: Anal, Anal Creampie, Big Tits, Blonde, Blowjob (POV), Bubble Butt, Creampie, Feet
Продолжительность: 00:41:55

Описание: Krissy loves to get it in the inside; her asshole only rewards big cocks with the pleasure of creaming it. In this scene Krissy plays an overpriced model whose filthy attitude needs a little discipline; Keiran who has a history of straightening up girls with cocky attitudes.

Тип HD видео: 720p
Формат видео: MP4
Видео: MPEG4 Video (H264) 1280x720 29.97fps 3799kbps
Аудио: AAC 48000Hz stereo 110kbps

General
Complete name : bblib_krissy_lynn_720p_3800.mp4
Format : MPEG-4
Format profile : Base Media
Codec ID : isom
File size : 1.20 GiB
Duration : 41mn 54s
Overall bit rate mode : Variable
Overall bit rate : 4 090 Kbps
Encoded date : UTC 1970-01-01 00:00:00
Tagged date : UTC 1970-01-01 00:00:00
Writing application : Lavf52.32.0

Video
ID : 1
Format : AVC
Format/Info : Advanced Video Codec
Format profile : High@L3.1
Format settings, CABAC : Yes
Format settings, ReFrames : 4 frames
Codec ID : avc1
Codec ID/Info : Advanced Video Coding
Duration : 41mn 54s
Duration_FirstFrame : -100ms
Bit rate : 3 799 Kbps
Width : 1 280 pixels
Height : 720 pixels
Display aspect ratio : 16:9
Frame rate mode : Variable
Frame rate : 29.970 fps
Minimum frame rate : 7.493 fps
Maximum frame rate : 29.970 fps
Color space : YUV
Chroma subsampling : 4:2:0
Bit depth : 8 bits
Scan type : Progressive
Bits/(Pixel*Frame) : 0.138
Stream size : 1.11 GiB (93%)
Language : English
Encoded date : UTC 1970-01-01 00:00:00
Tagged date : UTC 2011-04-10 12:11:56

Audio
ID : 2
Format : AAC
Format/Info : Advanced Audio Codec
Format profile : LC
Codec ID : 40
Duration : 41mn 54s
Bit rate mode : Variable
Bit rate : 111 Kbps
Channel(s) : 2 channels
Channel positions : Front: L R
Sampling rate : 48.0 KHz
Compression mode : Lossy
Stream size : 33.2 MiB (3%)
Language : English
Encoded date : UTC 1970-01-01 00:00:00
Tagged date : UTC 2011-04-10 12:11:56

Other #1
ID : 65536
Type : Hint
Format : RTP
Codec ID : rtp
Duration : 41mn 54s
Encoded date : UTC 2011-04-10 12:11:11
Tagged date : UTC 2011-04-10 12:11:56
Duration_FirstFrame : -100

Other #2
ID : 65537
Type : Hint
Format : RTP
Codec ID : rtp
Duration : 41mn 54s
Encoded date : UTC 2011-04-10 12:11:54
Tagged date : UTC 2011-04-10 12:11:56
Bit rate mode : VBR
Трекер:  [ 14-Авг-2016 17:00 ]

Размер .torrent файла 12 KB


Размер: 1.2 GB
Хэш (hash) релиза: e344f4d5ef5b3f4373567c546d909c72f600ce68
Подписка на обновления:

Еще никто не оставлял запись к записи скачать торрент Krissy Lynn . Будь первым!

!Обратная связь
//main.js show_panel