Статистика раздачи
Размер:  1.04 GB   |    Зарегистрирован:  4 года 3 месяца   |    .torrent скачан:  25 раз   |   

Пиры будут получены при скачивании

 

Скачать порно Bridgette B через торрент бесплатно :: UnionPron.org

 
 
Автор Сообщение

Sakura

avatar Sakura


Bridgette B & Mick Blue - You Asked Whore It



Имя актрисы: Bridgette B
Название ролика: You Asked Whore It
Номер на сайте: 5697

Год производства: 7 июля 2011 г.
Жанр: Anal, Big Ass, Blonde, Huge Tits, Latina
Продолжительность: 00:17:31

Описание: Since they got married, Mick Blue has been nothing but supportive to his bitchy new wife Bridgette B. But when that sassy Spanish slut starts disrespecting his fucking skills, that''s the last straw! Mick decides to show that busty bitch how a real man fucks, pounding her pussy, her mouth, and even her tight little asshole! Bridgette''s big tits bounce and sway as Mick gives her the intense anal sex that all sluts crave, and then covers her face with a big gooey facial cumshot!

Тип HD видео: 720p
Формат видео: MP4
Видео: MPEG4 Video (H264) 1280x720 29.97fps 7993kbps
Аудио: AAC 48000Hz stereo 127kbps

General
Complete name : bblib_bridgette_b06_720p_8000.mp4
Format : MPEG-4
Format profile : Base Media
Codec ID : isom
File size : 1.04 GiB
Duration : 17mn 30s
Overall bit rate : 8 464 Kbps
Writing application : Lavf54.37.100

Video
ID : 1
Format : AVC
Format/Info : Advanced Video Codec
Format profile : High@L4.1
Format settings, CABAC : Yes
Format settings, ReFrames : 5 frames
Codec ID : avc1
Codec ID/Info : Advanced Video Coding
Duration : 17mn 30s
Bit rate : 8 000 Kbps
Width : 1 280 pixels
Height : 720 pixels
Display aspect ratio : 16:9
Frame rate mode : Constant
Frame rate : 29.970 fps
Color space : YUV
Chroma subsampling : 4:2:0
Bit depth : 8 bits
Scan type : Progressive
Bits/(Pixel*Frame) : 0.290
Stream size : 1 001 MiB (94%)
Writing library : x264 core 128 r2216 198a7ea
Encoding settings : cabac=1 / ref=5 / deblock=1:0:0 / analyse=0x3:0x113 / me=umh / subme=8 / psy=1 / psy_rd=1.00:0.00 / mixed_ref=1 / me_range=16 / chroma_me=1 / trellis=1 / 8x8dct=1 / cqm=0 / deadzone=21,11 / fast_pskip=1 / chroma_qp_offset=-2 / threads=36 / lookahead_threads=6 / sliced_threads=0 / nr=0 / decimate=1 / interlaced=0 / bluray_compat=0 / constrained_intra=0 / bframes=3 / b_pyramid=2 / b_adapt=2 / b_bias=0 / direct=3 / weightb=1 / open_gop=0 / weightp=2 / keyint=60 / keyint_min=6 / scenecut=40 / intra_refresh=0 / rc_lookahead=50 / rc=abr / mbtree=1 / bitrate=8000 / ratetol=1.0 / qcomp=0.60 / qpmin=0 / qpmax=69 / qpstep=4 / ip_ratio=1.40 / aq=1:1.00
Tagged date : UTC 2014-02-03 09:44:25

Audio
ID : 2
Format : AAC
Format/Info : Advanced Audio Codec
Format profile : LC
Codec ID : 40
Duration : 17mn 30s
Duration_LastFrame : 33ms
Bit rate mode : Constant
Bit rate : 128 Kbps
Channel(s) : 2 channels
Channel positions : Front: L R
Sampling rate : 48.0 KHz
Compression mode : Lossy
Stream size : 16.0 MiB (2%)
Tagged date : UTC 2014-02-03 09:44:25

Other #1
ID : 65536
Type : Hint
Format : RTP
Codec ID : rtp
Duration : 17mn 30s
Encoded date : UTC 2014-02-03 09:43:54
Tagged date : UTC 2014-02-03 09:44:25

Other #2
ID : 65537
Type : Hint
Format : RTP
Codec ID : rtp
Duration : 17mn 30s
Encoded date : UTC 2014-02-03 09:44:24
Tagged date : UTC 2014-02-03 09:44:25
Bit rate mode : VBR
Трекер:  [ 14-Авг-2016 15:30 ]

Размер .torrent файла 11 KB


Размер: 1.04 GB
Хэш (hash) релиза: 2f48a4e3446f23eac3e68f721fd3e28a512fcc64
Подписка на обновления:

Еще никто не оставлял запись к записи скачать торрент Bridgette B . Будь первым!

!Обратная связь
//main.js show_panel