Статистика раздачи
Размер:  1.86 GB   |    Зарегистрирован:  4 года 3 месяца   |    .torrent скачан:  31 раз   |   

Пиры будут получены при скачивании

 

Скачать порно Blake Rose через торрент бесплатно :: UnionPron.org

 
 
Автор Сообщение

Sakura

avatar Sakura


Blake Rose & Tommy Gunn - Full Metal Anal



Имя актрисы: Blake Rose
Название ролика: Full Metal Anal
Номер на сайте: 6053

Год производства: 10 декабря 2011 г.
Жанр: Anal, Ass To Mouth, Big Tits, Big Tits Worship, Blonde, Soldier Girl, Uniform
Продолжительность: 00:32:36

Описание: Blake Rose calls the shots in THIS military boot-camp and boy is Tommy ever learning that the hard way. After verbally chewing him out and giving him one hell of a workout, Blake orders Tommy to hit the showers. While showering, Blake walks in on him and orders him to serve his CUNTry. And after that, show her tight little ass some real shock and awe!

Тип HD видео: 1080p
Формат видео: MP4
Видео: MPEG4 Video (H264) 1920x1080 29.97fps 8010kbps
Аудио: AAC 48000Hz stereo 130kbps

General
Complete name : btiu_blake_rose_1080p_8000.mp4
Format : MPEG-4
Format profile : Base Media
Codec ID : isom
File size : 1.86 GiB
Duration : 32mn 36s
Overall bit rate mode : Variable
Overall bit rate : 8 148 Kbps
Encoded date : UTC 1970-01-01 00:00:00
Tagged date : UTC 1970-01-01 00:00:00
Writing application : Lavf52.31.0

Video
ID : 1
Format : AVC
Format/Info : Advanced Video Codec
Format profile : High@L4
Format settings, CABAC : Yes
Format settings, ReFrames : 4 frames
Codec ID : avc1
Codec ID/Info : Advanced Video Coding
Duration : 32mn 36s
Duration_FirstFrame : -100ms
Bit rate : 8 011 Kbps
Width : 1 920 pixels
Height : 1 080 pixels
Display aspect ratio : 16:9
Frame rate mode : Variable
Frame rate : 29.970 fps
Minimum frame rate : 7.493 fps
Maximum frame rate : 29.970 fps
Color space : YUV
Chroma subsampling : 4:2:0
Bit depth : 8 bits
Scan type : Progressive
Bits/(Pixel*Frame) : 0.129
Stream size : 1.82 GiB (98%)
Language : English
Encoded date : UTC 1970-01-01 00:00:00
Tagged date : UTC 1970-01-01 00:00:00

Audio
ID : 2
Format : AAC
Format/Info : Advanced Audio Codec
Format profile : LC
Codec ID : 40
Duration : 32mn 36s
Bit rate mode : Variable
Bit rate : 132 Kbps
Channel(s) : 2 channels
Channel positions : Front: L R
Sampling rate : 48.0 KHz
Compression mode : Lossy
Stream size : 30.5 MiB (2%)
Language : English
Encoded date : UTC 1970-01-01 00:00:00
Tagged date : UTC 1970-01-01 00:00:00
Трекер:  [ 14-Авг-2016 14:30 ]

Размер .torrent файла 19 KB


Размер: 1.86 GB
Хэш (hash) релиза: 7194b12122c5f550110d67ec482db8f54c15f34a
Подписка на обновления:

Еще никто не оставлял запись к записи скачать торрент Blake Rose . Будь первым!

!Обратная связь
//main.js show_panel