Статистика раздачи
Размер:  1003 MB   |    Зарегистрирован:  4 года 3 месяца   |    .torrent скачан:  18 раз   |   

Пиры будут получены при скачивании

 

Скачать порно Lana Viole через торрент бесплатно :: UnionPron.org

 
 
Автор Сообщение

Sakura

avatar Sakura


Lana Violet & Anthony Rosano - Analyze That!



Имя актрисы: Lana Viole
Название ролика: Analyze That!
Номер на сайте: 5979

Год производства: 27 октября 2011 г.
Жанр: Anal, Brunette, Cum On Ass, Doctor, Doctor/Nurse, Hospital, Medium Tits, Natural Tits
Продолжительность: 00:34:17

Описание: Nurse Violet is one helluva slut! Now her superiors at the hospital are completely fed up with her incredible salaciousness. She''s so slutty, in fact, she blows even the janitor in the halls on a daily basis! Good thing Dr. Rosano''s on the job. Hopefully he can find a treatment for nurse Violet''s insatiable lust for cock.

Тип HD видео: 720p
Формат видео: MP4
Видео: MPEG4 Video (H264) 1280x720 29.97fps 3787kbps
Аудио: AAC 48000Hz stereo 127kbps

General
Complete name : da_lana_violet_720p_3800.mp4
Format : MPEG-4
Format profile : Base Media
Codec ID : isom
File size : 1 003 MiB
Duration : 34mn 16s
Overall bit rate mode : Variable
Overall bit rate : 4 092 Kbps
Encoded date : UTC 1970-01-01 00:00:00
Tagged date : UTC 1970-01-01 00:00:00
Writing application : Lavf52.32.0

Video
ID : 1
Format : AVC
Format/Info : Advanced Video Codec
Format profile : High@L3.1
Format settings, CABAC : Yes
Format settings, ReFrames : 4 frames
Codec ID : avc1
Codec ID/Info : Advanced Video Coding
Duration : 34mn 16s
Duration_FirstFrame : -100ms
Bit rate : 3 788 Kbps
Width : 1 280 pixels
Height : 720 pixels
Display aspect ratio : 16:9
Frame rate mode : Variable
Frame rate : 29.970 fps
Minimum frame rate : 7.493 fps
Maximum frame rate : 29.970 fps
Color space : YUV
Chroma subsampling : 4:2:0
Bit depth : 8 bits
Scan type : Progressive
Bits/(Pixel*Frame) : 0.137
Stream size : 929 MiB (93%)
Language : English
Encoded date : UTC 1970-01-01 00:00:00
Tagged date : UTC 2011-10-19 02:59:23

Audio
ID : 2
Format : AAC
Format/Info : Advanced Audio Codec
Format profile : LC
Codec ID : 40
Duration : 34mn 16s
Bit rate mode : Variable
Bit rate : 128 Kbps
Channel(s) : 2 channels
Channel positions : Front: L R
Sampling rate : 48.0 KHz
Compression mode : Lossy
Stream size : 31.4 MiB (3%)
Language : English
Encoded date : UTC 1970-01-01 00:00:00
Tagged date : UTC 2011-10-19 02:59:23

Other #1
ID : 65536
Type : Hint
Format : RTP
Codec ID : rtp
Duration : 34mn 16s
Encoded date : UTC 2011-10-19 02:58:25
Tagged date : UTC 2011-10-19 02:59:23
Duration_FirstFrame : -100

Other #2
ID : 65537
Type : Hint
Format : RTP
Codec ID : rtp
Duration : 34mn 16s
Encoded date : UTC 2011-10-19 02:59:22
Tagged date : UTC 2011-10-19 02:59:23
Bit rate mode : VBR
Трекер:  [ 14-Авг-2016 14:30 ]

Размер .torrent файла 20 KB


Размер: 1003 MB
Хэш (hash) релиза: e7b32896ff04f201b361ef7b2ba8524588c88752
Подписка на обновления:

Еще никто не оставлял запись к записи скачать торрент Lana Viole . Будь первым!

!Обратная связь
//main.js show_panel