Статистика раздачи
Размер:  1.37 GB   |    Зарегистрирован:  4 года 3 месяца   |    .torrent скачан:  25 раз   |   

Пиры будут получены при скачивании

 

Скачать порно Melissa Ria через торрент бесплатно :: UnionPron.org

 
 
Автор Сообщение

Sakura

avatar Sakura


Melissa Ria & Yanick Shaft - Milgram''s Experiment



Имя актрисы: Melissa Ria
Название ролика: Milgram''s Experiment
Номер на сайте: 5538

Год производства: 21 апреля 2011 г.
Жанр: Anal, Black Hair, Doctor/Nurse, Euro, Gaping, Hospital, Medium Tits, Natural Tits, Speculum
Продолжительность: 00:47:42

Описание: In 1961 a controversial experiment that led to a debate in psychoanalysis was conducted behind closed doors, it answered questions as to just how people with power and clout have leverage over our rational thinking. In this scene an honest man takes his wife to a gynecologist who tells him that as a medical doctor he has to stick his cock into his wife''s pussy to physically know what conclusion to make.

Тип HD видео: 720p
Формат видео: MP4
Видео: MPEG4 Video (H264) 1280x720 23.976fps 3799kbps
Аудио: AAC 48000Hz stereo 127kbps

General
Complete name : da_melissa_ria_720p_3800.mp4
Format : MPEG-4
Format profile : Base Media
Codec ID : isom
File size : 1.37 GiB
Duration : 47mn 42s
Overall bit rate mode : Variable
Overall bit rate : 4 106 Kbps
Encoded date : UTC 1970-01-01 00:00:00
Tagged date : UTC 1970-01-01 00:00:00
Writing application : Lavf52.32.0

Video
ID : 1
Format : AVC
Format/Info : Advanced Video Codec
Format profile : High@L3.1
Format settings, CABAC : Yes
Format settings, ReFrames : 4 frames
Codec ID : avc1
Codec ID/Info : Advanced Video Coding
Duration : 47mn 42s
Duration_FirstFrame : -125ms
Bit rate : 3 800 Kbps
Width : 1 280 pixels
Height : 720 pixels
Display aspect ratio : 16:9
Frame rate mode : Variable
Frame rate : 23.976 fps
Minimum frame rate : 5.994 fps
Maximum frame rate : 23.976 fps
Color space : YUV
Chroma subsampling : 4:2:0
Bit depth : 8 bits
Scan type : Progressive
Bits/(Pixel*Frame) : 0.172
Stream size : 1.27 GiB (93%)
Language : English
Encoded date : UTC 1970-01-01 00:00:00
Tagged date : UTC 2011-04-03 21:46:23

Audio
ID : 2
Format : AAC
Format/Info : Advanced Audio Codec
Format profile : LC
Codec ID : 40
Duration : 47mn 42s
Bit rate mode : Variable
Bit rate : 128 Kbps
Channel(s) : 2 channels
Channel positions : Front: L R
Sampling rate : 48.0 KHz
Compression mode : Lossy
Stream size : 43.7 MiB (3%)
Language : English
Encoded date : UTC 1970-01-01 00:00:00
Tagged date : UTC 2011-04-03 21:46:23

Other #1
ID : 65536
Type : Hint
Format : RTP
Codec ID : rtp
Duration : 47mn 42s
Encoded date : UTC 2011-04-03 21:45:14
Tagged date : UTC 2011-04-03 21:46:23

Other #2
ID : 65537
Type : Hint
Format : RTP
Codec ID : rtp
Duration : 47mn 42s
Encoded date : UTC 2011-04-03 21:46:21
Tagged date : UTC 2011-04-03 21:46:23
Bit rate mode : VBR
Трекер:  [ 14-Авг-2016 13:00 ]

Размер .torrent файла 14 KB


Размер: 1.37 GB
Хэш (hash) релиза: 1e4b2dde77a99edfd61a0e93fe80e6d5a7121b08
Подписка на обновления:

Еще никто не оставлял запись к записи скачать торрент Melissa Ria . Будь первым!

!Обратная связь
//main.js show_panel