Статистика раздачи
Размер:  1.14 GB   |    Зарегистрирован:  4 года 3 месяца   |    .torrent скачан:  14 раз   |   

Пиры будут получены при скачивании

 

Скачать порно Devon Michaels через торрент бесплатно :: UnionPron.org

 
 
Автор Сообщение

Sakura

avatar Sakura


Devon Michaels & Johnny Sins - Office Pranks By Office Skanks



Имя актрисы: Devon Michaels
Название ролика: Office Pranks By Office Skanks
Номер на сайте: 5655

Год производства: 9 июня 2011 г.
Жанр: Big Tits, Big Tits Worship, Brunette, Business Woman, MILF, Medium Ass, Office, Work Fantasies
Продолжительность: 00:39:52

Описание: When Devon catches her boss, Mr. Sins, peeking at her big tits, she decides to play a prank on him to exact her revenge. However, when she discovers that Mr. Sins doesn''t share her sense of humour and threatens to fire her, Devon realizes that she''s got to bring out the big guns in order to keep her job. Time for Devon to add another special skill to her resume!

Тип HD видео: 720p
Формат видео: MP4
Видео: MPEG4 Video (H264) 1280x720 29.97fps 3799kbps
Аудио: AAC 48000Hz stereo 110kbps

General
Complete name : btaw_devon_michaels04_720p_3800.mp4
Format : MPEG-4
Format profile : Base Media
Codec ID : isom
File size : 1.14 GiB
Duration : 39mn 51s
Overall bit rate mode : Variable
Overall bit rate : 4 088 Kbps
Encoded date : UTC 1970-01-01 00:00:00
Tagged date : UTC 1970-01-01 00:00:00
Writing application : Lavf52.32.0

Video
ID : 1
Format : AVC
Format/Info : Advanced Video Codec
Format profile : High@L3.1
Format settings, CABAC : Yes
Format settings, ReFrames : 4 frames
Codec ID : avc1
Codec ID/Info : Advanced Video Coding
Duration : 39mn 51s
Duration_FirstFrame : -100ms
Bit rate : 3 799 Kbps
Width : 1 280 pixels
Height : 720 pixels
Display aspect ratio : 16:9
Frame rate mode : Variable
Frame rate : 29.970 fps
Minimum frame rate : 7.493 fps
Maximum frame rate : 29.970 fps
Color space : YUV
Chroma subsampling : 4:2:0
Bit depth : 8 bits
Scan type : Progressive
Bits/(Pixel*Frame) : 0.138
Stream size : 1.06 GiB (93%)
Language : English
Encoded date : UTC 1970-01-01 00:00:00
Tagged date : UTC 2011-05-29 16:11:18

Audio
ID : 2
Format : AAC
Format/Info : Advanced Audio Codec
Format profile : LC
Codec ID : 40
Duration : 39mn 51s
Bit rate mode : Variable
Bit rate : 110 Kbps
Channel(s) : 2 channels
Channel positions : Front: L R
Sampling rate : 48.0 KHz
Compression mode : Lossy
Stream size : 31.5 MiB (3%)
Language : English
Encoded date : UTC 1970-01-01 00:00:00
Tagged date : UTC 2011-05-29 16:11:18

Other #1
ID : 65536
Type : Hint
Format : RTP
Codec ID : rtp
Duration : 39mn 51s
Encoded date : UTC 2011-05-29 16:10:31
Tagged date : UTC 2011-05-29 16:11:18
Duration_FirstFrame : -100

Other #2
ID : 65537
Type : Hint
Format : RTP
Codec ID : rtp
Duration : 39mn 51s
Encoded date : UTC 2011-05-29 16:11:17
Tagged date : UTC 2011-05-29 16:11:18
Bit rate mode : VBR
Трекер:  [ 14-Авг-2016 11:00 ]

Размер .torrent файла 12 KB


Размер: 1.14 GB
Хэш (hash) релиза: a1cbced3e0d422a041e5a3f529a34bebe05e1afd
Подписка на обновления:

Еще никто не оставлял запись к записи скачать торрент Devon Michaels . Будь первым!

!Обратная связь
//main.js show_panel