Статистика раздачи
Размер:  970 MB   |    Зарегистрирован:  4 года 3 месяца   |    .torrent скачан:  22 раза   |   

Пиры будут получены при скачивании

 

Скачать порно Yurizan Beltran через торрент бесплатно :: UnionPron.org

 
 
Автор Сообщение

Sakura

avatar Sakura


Yurizan Beltran & Danny Mountain - Handy Cock Attack



Имя актрисы: Yurizan Beltran
Название ролика: Handy Cock Attack
Номер на сайте: 5693

Год производства: 23 июня 2011 г.
Жанр: Big Tits, Big Tits Worship, Brunette, Bubble Butt, Business Woman, Office, Work Fantasies
Продолжительность: 00:33:11

Описание: Yurizan loves to finger herself during work, she gets so wet her juices soak up between her fingers. The hornier she gets the more she desires a cock. Danny is Head of the IT department, he gets called over by Yurizan to check if the computer under her desk is working; in doing so he kneels down only to see her spread her pussy in his face. It''s clear what fixing he needs to do now.

Тип HD видео: 720p
Формат видео: MP4
Видео: MPEG4 Video (H264) 1280x720 29.97fps 3798kbps
Аудио: AAC 48000Hz stereo 109kbps

General
Complete name : btaw_yurizan_beltran_720p_3800.mp4
Format : MPEG-4
Format profile : Base Media
Codec ID : isom
File size : 970 MiB
Duration : 33mn 10s
Overall bit rate mode : Variable
Overall bit rate : 4 085 Kbps
Encoded date : UTC 1970-01-01 00:00:00
Tagged date : UTC 1970-01-01 00:00:00
Writing application : Lavf52.32.0

Video
ID : 1
Format : AVC
Format/Info : Advanced Video Codec
Format profile : High@L3.1
Format settings, CABAC : Yes
Format settings, ReFrames : 4 frames
Format settings, GOP : M=5, N=60
Codec ID : avc1
Codec ID/Info : Advanced Video Coding
Duration : 33mn 10s
Duration_FirstFrame : -100ms
Bit rate : 3 799 Kbps
Width : 1 280 pixels
Height : 720 pixels
Display aspect ratio : 16:9
Frame rate mode : Variable
Frame rate : 29.970 fps
Minimum frame rate : 7.493 fps
Maximum frame rate : 29.970 fps
Color space : YUV
Chroma subsampling : 4:2:0
Bit depth : 8 bits
Scan type : Progressive
Bits/(Pixel*Frame) : 0.138
Stream size : 902 MiB (93%)
Language : English
Encoded date : UTC 1970-01-01 00:00:00
Tagged date : UTC 2011-06-14 00:33:58

Audio
ID : 2
Format : AAC
Format/Info : Advanced Audio Codec
Format profile : LC
Codec ID : 40
Duration : 33mn 10s
Bit rate mode : Variable
Bit rate : 109 Kbps
Channel(s) : 2 channels
Channel positions : Front: L R
Sampling rate : 48.0 KHz
Compression mode : Lossy
Stream size : 25.9 MiB (3%)
Language : English
Encoded date : UTC 1970-01-01 00:00:00
Tagged date : UTC 2011-06-14 00:33:58

Other #1
ID : 65536
Type : Hint
Format : RTP
Codec ID : rtp
Duration : 33mn 10s
Encoded date : UTC 2011-06-13 23:43:19
Tagged date : UTC 2011-06-14 00:33:58
Duration_FirstFrame : -100

Other #2
ID : 65537
Type : Hint
Format : RTP
Codec ID : rtp
Duration : 33mn 10s
Encoded date : UTC 2011-06-14 00:33:57
Tagged date : UTC 2011-06-14 00:33:58
Bit rate mode : VBR
Трекер:  [ 14-Авг-2016 11:00 ]

Размер .torrent файла 19 KB


Размер: 970 MB
Хэш (hash) релиза: 30f2afd21c0007ee54aa20e4b8cc6fe7a67b7a5d
Подписка на обновления:

Еще никто не оставлял запись к записи скачать торрент Yurizan Beltran . Будь первым!

!Обратная связь
//main.js show_panel