Статистика раздачи
Размер:  1.94 GB   |    Зарегистрирован:  4 года 3 месяца   |    .torrent скачан:  55 раз   |   

Пиры будут получены при скачивании

 

Скачать порно Tiffany Mynx через торрент бесплатно :: UnionPron.org

 
 
Автор Сообщение

Sakura

avatar Sakura


Tiffany Mynx & Xander Corvus - Slayed By The Maid



Имя актрисы: Tiffany Mynx
Название ролика: Slayed By The Maid
Номер на сайте: 6006

Год производства: 19 ноября 2011 г.
Жанр: Anal, Big Ass, Big Tits, Hotel Room, MILF, Maid, Redhead, Uniform
Продолжительность: 00:32:50

Описание: Xander has never seen a hotel maid like Tiffany. Her ass is so big and beautiful he decides to capture it on hidden camera. When Tiffany finds the camera in his room she wants revenge, big butt style. That means smothering, licking and fucking!

Тип HD видео: 1080p
Формат видео: MP4
Видео: MPEG4 Video (H264) 1920x1080 29.97fps 8002kbps
Аудио: AAC 48000Hz stereo 115kbps

General
Complete name : bblib_tiffany_mynx_1080p_8000.mp4
Format : MPEG-4
Format profile : Base Media
Codec ID : isom
File size : 1.94 GiB
Duration : 32mn 50s
Overall bit rate mode : Variable
Overall bit rate : 8 461 Kbps
Encoded date : UTC 1970-01-01 00:00:00
Tagged date : UTC 1970-01-01 00:00:00
Writing application : Lavf52.31.0

Video
ID : 1
Format : AVC
Format/Info : Advanced Video Codec
Format profile : High@L4
Format settings, CABAC : Yes
Format settings, ReFrames : 4 frames
Codec ID : avc1
Codec ID/Info : Advanced Video Coding
Duration : 32mn 50s
Duration_FirstFrame : -100ms
Bit rate : 8 003 Kbps
Width : 1 920 pixels
Height : 1 080 pixels
Display aspect ratio : 16:9
Frame rate mode : Variable
Frame rate : 29.970 fps
Minimum frame rate : 7.493 fps
Maximum frame rate : 29.970 fps
Color space : YUV
Chroma subsampling : 4:2:0
Bit depth : 8 bits
Scan type : Progressive
Bits/(Pixel*Frame) : 0.129
Stream size : 1.84 GiB (95%)
Language : English
Encoded date : UTC 1970-01-01 00:00:00
Tagged date : UTC 2011-11-03 22:16:13

Audio
ID : 2
Format : AAC
Format/Info : Advanced Audio Codec
Format profile : LC
Codec ID : 40
Duration : 32mn 49s
Bit rate mode : Variable
Bit rate : 115 Kbps
Channel(s) : 2 channels
Channel positions : Front: L R
Sampling rate : 48.0 KHz
Compression mode : Lossy
Stream size : 27.1 MiB (1%)
Language : English
Encoded date : UTC 1970-01-01 00:00:00
Tagged date : UTC 2011-11-03 22:16:13

Other #1
ID : 65536
Type : Hint
Format : RTP
Codec ID : rtp
Duration : 32mn 50s
Encoded date : UTC 2011-11-03 22:13:07
Tagged date : UTC 2011-11-03 22:16:13
Duration_FirstFrame : -100

Other #2
ID : 65537
Type : Hint
Format : RTP
Codec ID : rtp
Duration : 32mn 49s
Encoded date : UTC 2011-11-03 22:16:10
Tagged date : UTC 2011-11-03 22:16:13
Bit rate mode : VBR
Трекер:  [ 14-Авг-2016 01:00 ]

Размер .torrent файла 20 KB


Размер: 1.94 GB
Хэш (hash) релиза: 58774a0697694d990b0b141c808d492ade29ce
Подписка на обновления:

Еще никто не оставлял запись к записи скачать торрент Tiffany Mynx . Будь первым!

!Обратная связь
//main.js show_panel