Статистика раздачи
Размер:  1.97 GB   |    Зарегистрирован:  4 года 3 месяца   |    .torrent скачан:  12 раз   |   

Пиры будут получены при скачивании

 

Скачать порно Yurizan Beltran через торрент бесплатно :: UnionPron.org

 
 
Автор Сообщение

Sakura

avatar Sakura


Yurizan Beltran & Danny Mountain - Handy Cock Attack



Имя актрисы: Yurizan Beltran
Название ролика: Handy Cock Attack
Номер на сайте: 5693

Год производства: 23 июня 2011 г.
Жанр: Big Tits, Big Tits Worship, Brunette, Bubble Butt, Business Woman, Office, Work Fantasies
Продолжительность: 00:33:11

Описание: Yurizan loves to finger herself during work, she gets so wet her juices soak up between her fingers. The hornier she gets the more she desires a cock. Danny is Head of the IT department, he gets called over by Yurizan to check if the computer under her desk is working; in doing so he kneels down only to see her spread her pussy in his face. It''s clear what fixing he needs to do now.

Тип HD видео: 1080p
Формат видео: MP4
Видео: MPEG4 Video (H264) 1920x1080 29.97fps 8022kbps
Аудио: AAC 48000Hz stereo 117kbps

General
Complete name : btaw_yurizan_beltran_1080p_8000.mp4
Format : MPEG-4
Format profile : Base Media
Codec ID : isom
File size : 1.97 GiB
Duration : 33mn 10s
Overall bit rate mode : Variable
Overall bit rate : 8 497 Kbps
Encoded date : UTC 1970-01-01 00:00:00
Tagged date : UTC 1970-01-01 00:00:00
Writing application : Lavf52.31.0

Video
ID : 1
Format : AVC
Format/Info : Advanced Video Codec
Format profile : High@L4
Format settings, CABAC : Yes
Format settings, ReFrames : 4 frames
Format settings, GOP : N=1
Codec ID : avc1
Codec ID/Info : Advanced Video Coding
Duration : 33mn 10s
Duration_FirstFrame : -100ms
Bit rate : 8 023 Kbps
Width : 1 920 pixels
Height : 1 080 pixels
Display aspect ratio : 16:9
Frame rate mode : Variable
Frame rate : 29.970 fps
Minimum frame rate : 7.493 fps
Maximum frame rate : 29.970 fps
Color space : YUV
Chroma subsampling : 4:2:0
Bit depth : 8 bits
Scan type : Progressive
Bits/(Pixel*Frame) : 0.129
Stream size : 1.86 GiB (94%)
Language : English
Encoded date : UTC 1970-01-01 00:00:00
Tagged date : UTC 2011-06-14 00:22:28

Audio
ID : 2
Format : AAC
Format/Info : Advanced Audio Codec
Format profile : LC
Codec ID : 40
Duration : 33mn 10s
Bit rate mode : Variable
Bit rate : 118 Kbps
Channel(s) : 2 channels
Channel positions : Front: L R
Sampling rate : 48.0 KHz
Compression mode : Lossy
Stream size : 28.0 MiB (1%)
Language : English
Encoded date : UTC 1970-01-01 00:00:00
Tagged date : UTC 2011-06-14 00:22:28

Other #1
ID : 65536
Type : Hint
Format : RTP
Codec ID : rtp
Duration : 33mn 10s
Encoded date : UTC 2011-06-14 00:19:19
Tagged date : UTC 2011-06-14 00:22:28
Duration_FirstFrame : -100

Other #2
ID : 65537
Type : Hint
Format : RTP
Codec ID : rtp
Duration : 33mn 10s
Encoded date : UTC 2011-06-14 00:22:26
Tagged date : UTC 2011-06-14 00:22:28
Bit rate mode : VBR
Трекер:  [ 13-Авг-2016 20:30 ]

Размер .torrent файла 20 KB


Размер: 1.97 GB
Хэш (hash) релиза: 29ab316485c26ac1a7c789e3d0b0a7beda2246df
Подписка на обновления:

Еще никто не оставлял запись к записи скачать торрент Yurizan Beltran . Будь первым!

!Обратная связь
//main.js show_panel