Статистика раздачи
Размер:  2.37 GB   |    Зарегистрирован:  4 года 3 месяца   |    .torrent скачан:  12 раз   |   

Пиры будут получены при скачивании

 

Скачать порно Devon Michaels через торрент бесплатно :: UnionPron.org

 
 
Автор Сообщение

Sakura

avatar Sakura


Devon Michaels & Johnny Sins - Office Pranks By Office Skanks



Имя актрисы: Devon Michaels
Название ролика: Office Pranks By Office Skanks
Номер на сайте: 5655

Год производства: 9 июня 2011 г.
Жанр: Big Tits, Big Tits Worship, Brunette, Business Woman, MILF, Medium Ass, Office, Work Fantasies
Продолжительность: 00:39:52

Описание: When Devon catches her boss, Mr. Sins, peeking at her big tits, she decides to play a prank on him to exact her revenge. However, when she discovers that Mr. Sins doesn''t share her sense of humour and threatens to fire her, Devon realizes that she''s got to bring out the big guns in order to keep her job. Time for Devon to add another special skill to her resume!

Тип HD видео: 1080p
Формат видео: MP4
Видео: MPEG4 Video (H264) 1920x1080 29.97fps 8046kbps
Аудио: AAC 48000Hz stereo 113kbps

General
Complete name : btaw_devon_michaels04_1080p_8000.mp4
Format : MPEG-4
Format profile : Base Media
Codec ID : isom
File size : 2.37 GiB
Duration : 39mn 51s
Overall bit rate mode : Variable
Overall bit rate : 8 517 Kbps
Encoded date : UTC 1970-01-01 00:00:00
Tagged date : UTC 1970-01-01 00:00:00
Writing application : Lavf52.31.0

Video
ID : 1
Format : AVC
Format/Info : Advanced Video Codec
Format profile : High@L4
Format settings, CABAC : Yes
Format settings, ReFrames : 4 frames
Format settings, GOP : N=1
Codec ID : avc1
Codec ID/Info : Advanced Video Coding
Duration : 39mn 51s
Duration_FirstFrame : -100ms
Bit rate : 8 047 Kbps
Width : 1 920 pixels
Height : 1 080 pixels
Display aspect ratio : 16:9
Frame rate mode : Variable
Frame rate : 29.970 fps
Minimum frame rate : 7.493 fps
Maximum frame rate : 29.970 fps
Color space : YUV
Chroma subsampling : 4:2:0
Bit depth : 8 bits
Scan type : Progressive
Bits/(Pixel*Frame) : 0.129
Stream size : 2.24 GiB (94%)
Language : English
Encoded date : UTC 1970-01-01 00:00:00
Tagged date : UTC 2011-05-29 19:22:29

Audio
ID : 2
Format : AAC
Format/Info : Advanced Audio Codec
Format profile : LC
Codec ID : 40
Duration : 39mn 51s
Bit rate mode : Variable
Bit rate : 114 Kbps
Channel(s) : 2 channels
Channel positions : Front: L R
Sampling rate : 48.0 KHz
Compression mode : Lossy
Stream size : 32.4 MiB (1%)
Language : English
Encoded date : UTC 1970-01-01 00:00:00
Tagged date : UTC 2011-05-29 19:22:29

Other #1
ID : 65536
Type : Hint
Format : RTP
Codec ID : rtp
Duration : 39mn 51s
Encoded date : UTC 2011-05-29 19:20:21
Tagged date : UTC 2011-05-29 19:22:29
Duration_FirstFrame : -100

Other #2
ID : 65537
Type : Hint
Format : RTP
Codec ID : rtp
Duration : 39mn 51s
Encoded date : UTC 2011-05-29 19:22:26
Tagged date : UTC 2011-05-29 19:22:29
Bit rate mode : VBR
Трекер:  [ 13-Авг-2016 20:00 ]

Размер .torrent файла 12 KB


Размер: 2.37 GB
Хэш (hash) релиза: 115ee96aebb9380aed9bd1c136270d63f17520b2
Подписка на обновления:

Еще никто не оставлял запись к записи скачать торрент Devon Michaels . Будь первым!

!Обратная связь
//main.js show_panel