Статистика раздачи
Размер:  1.53 GB   |    Зарегистрирован:  4 года 3 месяца   |    .torrent скачан:  21 раз   |   

Пиры будут получены при скачивании

 

Скачать порно Eve Laurence 1 - Lotto Tit 69 через торрент бесплатно :: UnionPron.org

 
 
Автор Сообщение

Sakura

avatar Sakura


Eve Laurence & Keiran Lee - Lotto Tit 69



Имя актрисы: Eve Laurence
Название ролика: Lotto Tit 69
Номер на сайте: 5786

Год производства: 2011 г.
Жанр: Big Tits, Brunette, Business Woman, Office, Work Fantasies
Продолжительность: 00:25:55

Описание: Keiran works for a demanding boss by the name of Eve Laurence who''s so tyrannical, she actually gets Keiran get down on his knees to beg for some time off to see his favorite band in concert. One afternoon at the office, Eve overhears Keiran''s cries of joy when he checks his lottery numbers and realizes he''s won the jackpot. Suddenly, Eve changes her tune with Keiran and decides to make up for being such a bitch by letting Keiran have his way with her.

Тип HD видео: 1080p
Формат видео: MP4
Видео: MPEG4 Video (H264) 1920x1080 29.97fps 7997kbps
Аудио: AAC 48000Hz stereo 111kbps

General
Complete name : btaw_eve_laurence_1080p_8000.mp4
Format : MPEG-4
Format profile : Base Media
Codec ID : isom
File size : 1.53 GiB
Duration : 25mn 54s
Overall bit rate mode : Variable
Overall bit rate : 8 461 Kbps
Encoded date : UTC 1970-01-01 00:00:00
Tagged date : UTC 1970-01-01 00:00:00
Writing application : Lavf52.31.0

Video
ID : 1
Format : AVC
Format/Info : Advanced Video Codec
Format profile : High@L4
Format settings, CABAC : Yes
Format settings, ReFrames : 4 frames
Codec ID : avc1
Codec ID/Info : Advanced Video Coding
Duration : 25mn 54s
Duration_FirstFrame : -100ms
Bit rate : 7 998 Kbps
Width : 1 920 pixels
Height : 1 080 pixels
Display aspect ratio : 16:9
Frame rate mode : Variable
Frame rate : 29.970 fps
Minimum frame rate : 7.493 fps
Maximum frame rate : 29.970 fps
Color space : YUV
Chroma subsampling : 4:2:0
Bit depth : 8 bits
Scan type : Progressive
Bits/(Pixel*Frame) : 0.129
Stream size : 1.45 GiB (95%)
Language : English
Encoded date : UTC 1970-01-01 00:00:00
Tagged date : UTC 2011-07-28 08:51:36

Audio
ID : 2
Format : AAC
Format/Info : Advanced Audio Codec
Format profile : LC
Codec ID : 40
Duration : 25mn 54s
Bit rate mode : Variable
Bit rate : 111 Kbps
Channel(s) : 2 channels
Channel positions : Front: L R
Sampling rate : 48.0 KHz
Compression mode : Lossy
Stream size : 20.6 MiB (1%)
Language : English
Encoded date : UTC 1970-01-01 00:00:00
Tagged date : UTC 2011-07-28 08:51:36

Other #1
ID : 65536
Type : Hint
Format : RTP
Codec ID : rtp
Duration : 25mn 54s
Encoded date : UTC 2011-07-28 08:50:05
Tagged date : UTC 2011-07-28 08:51:36
Duration_FirstFrame : -100

Other #2
ID : 65537
Type : Hint
Format : RTP
Codec ID : rtp
Duration : 25mn 54s
Encoded date : UTC 2011-07-28 08:51:35
Tagged date : UTC 2011-07-28 08:51:36
Bit rate mode : VBR
Трекер:  [ 13-Авг-2016 20:00 ]

Размер .torrent файла 15 KB


Размер: 1.53 GB
Хэш (hash) релиза: caad1af839b72897c9da628ca024bead6618e816
Подписка на обновления:

Еще никто не оставлял запись к записи скачать торрент Eve Laurence . Будь первым!

!Обратная связь
//main.js show_panel