Статистика раздачи
Размер:  1.79 GB   |    Зарегистрирован:  4 года 3 месяца   |    .torrent скачан:  9 раз   |   

Пиры будут получены при скачивании

 

Скачать порно Vanilla Devill через торрент бесплатно :: UnionPron.org

 
 
Автор Сообщение

Sakura

avatar Sakura


Vanilla Deville & Keiran Lee - Have A Slice Of My Poon-Tang Pie



Имя актрисы: Vanilla Devill
Название ролика: Have A Slice Of My Poon-Tang Pie
Номер на сайте: 5535

Год производства: 22 апреля 2011 г.
Жанр: Big Tits, Big Tits Worship, Brunette, MILF, Medium Ass, Mom
Продолжительность: 00:30:21

Описание: It''s Keiran''s birthday but unfortunately his best friend has to bail on him. Fortunately, however, his best friend''s mom Vanilla is more than eager to spend Keiran''s birthday for him. She even goes so far as to offer him a slice of her delicious poon-tang pie as a birthday present!

Тип HD видео: 720p
Формат видео: MP4
Видео: MPEG4 Video (H264) 1280x720 29.97fps 7971kbps
Аудио: AAC 48000Hz stereo 128kbps

General
Complete name : mgb_vanilla_deville02_v2_720p_8000.mp4
Format : MPEG-4
Format profile : Base Media
Codec ID : isom
File size : 1.79 GiB
Duration : 30mn 20s
Overall bit rate : 8 442 Kbps
Writing application : Lavf54.23.101

Video
ID : 1
Format : AVC
Format/Info : Advanced Video Codec
Format profile : High@L4.1
Format settings, CABAC : Yes
Format settings, ReFrames : 5 frames
Codec ID : avc1
Codec ID/Info : Advanced Video Coding
Duration : 30mn 20s
Bit rate : 8 000 Kbps
Width : 1 280 pixels
Height : 720 pixels
Display aspect ratio : 16:9
Frame rate mode : Constant
Frame rate : 29.970 fps
Color space : YUV
Chroma subsampling : 4:2:0
Bit depth : 8 bits
Scan type : Progressive
Bits/(Pixel*Frame) : 0.290
Stream size : 1.69 GiB (94%)
Writing library : x264 core 125 r2208 d9d2288
Encoding settings : cabac=1 / ref=5 / deblock=1:0:0 / analyse=0x3:0x113 / me=umh / subme=8 / psy=1 / psy_rd=1.00:0.00 / mixed_ref=1 / me_range=16 / chroma_me=1 / trellis=1 / 8x8dct=1 / cqm=0 / deadzone=21,11 / fast_pskip=1 / chroma_qp_offset=-2 / threads=12 / lookahead_threads=2 / sliced_threads=0 / nr=0 / decimate=1 / interlaced=0 / bluray_compat=0 / constrained_intra=0 / bframes=3 / b_pyramid=2 / b_adapt=2 / b_bias=0 / direct=3 / weightb=1 / open_gop=0 / weightp=2 / keyint=60 / keyint_min=6 / scenecut=40 / intra_refresh=0 / rc_lookahead=50 / rc=abr / mbtree=1 / bitrate=8000 / ratetol=1.0 / qcomp=0.60 / qpmin=0 / qpmax=69 / qpstep=4 / ip_ratio=1.40 / aq=1:1.00
Tagged date : UTC 2012-09-29 04:39:28

Audio
ID : 2
Format : AAC
Format/Info : Advanced Audio Codec
Format profile : LC
Codec ID : 40
Duration : 30mn 20s
Duration_LastFrame : -9ms
Bit rate mode : Constant
Bit rate : 128 Kbps
Channel(s) : 2 channels
Channel positions : Front: L R
Sampling rate : 48.0 KHz
Compression mode : Lossy
Stream size : 27.8 MiB (2%)
Tagged date : UTC 2012-09-29 04:39:28

Other #1
ID : 65536
Type : Hint
Format : RTP
Codec ID : rtp
Duration : 30mn 20s
Encoded date : UTC 2012-09-29 04:38:24
Tagged date : UTC 2012-09-29 04:39:28

Other #2
ID : 65537
Type : Hint
Format : RTP
Codec ID : rtp
Duration : 30mn 20s
Encoded date : UTC 2012-09-29 04:39:27
Tagged date : UTC 2012-09-29 04:39:28
Bit rate mode : VBR
Трекер:  [ 13-Авг-2016 19:30 ]

Размер .torrent файла 18 KB


Размер: 1.79 GB
Хэш (hash) релиза: 06b49ed3c9bd2d9bc84e3f8218b6bf4442c7702a
Подписка на обновления:

Еще никто не оставлял запись к записи скачать торрент Vanilla Devill . Будь первым!

!Обратная связь
//main.js show_panel