Статистика раздачи
Размер:  1.09 GB   |    Зарегистрирован:  4 года 3 месяца   |    .torrent скачан:  19 раз   |   

Пиры будут получены при скачивании

 

Скачать порно Nikki Sexx через торрент бесплатно :: UnionPron.org

 
 
Автор Сообщение

Sakura

avatar Sakura


Nikki Sexx & Keiran Lee - Fixing the Pipes



Имя актрисы: Nikki Sexx
Название ролика: Fixing the Pipes
Номер на сайте: 5543

Год производства: 27 апреля 2011 г.
Жанр: Anal, Bathroom, Big Tits, Brunette, Medium Ass, Plumber, Sex Toys
Продолжительность: 00:38:06

Описание: Nikki the plumber is screwing Keiran over. Not only does she take 3 hours to do a 10 minute job, she also smokes in the bathroom, and chats on the phone. After catching her playing with herself, he decides to really make her work for her money. The bathroom pipes aren''t the only thing that are about to get fixed.

Тип HD видео: 720p
Формат видео: MP4
Видео: MPEG4 Video (H264) 1280x720 29.97fps 3799kbps
Аудио: AAC 48000Hz stereo 127kbps

General
Complete name : bblib_nikki_sexx_720p_3800.mp4
Format : MPEG-4
Format profile : Base Media
Codec ID : isom
File size : 1.09 GiB
Duration : 38mn 6s
Overall bit rate mode : Variable
Overall bit rate : 4 105 Kbps
Encoded date : UTC 1970-01-01 00:00:00
Tagged date : UTC 1970-01-01 00:00:00
Writing application : Lavf52.32.0

Video
ID : 1
Format : AVC
Format/Info : Advanced Video Codec
Format profile : High@L3.1
Format settings, CABAC : Yes
Format settings, ReFrames : 4 frames
Codec ID : avc1
Codec ID/Info : Advanced Video Coding
Duration : 38mn 6s
Duration_FirstFrame : -100ms
Bit rate : 3 799 Kbps
Width : 1 280 pixels
Height : 720 pixels
Display aspect ratio : 16:9
Frame rate mode : Variable
Frame rate : 29.970 fps
Minimum frame rate : 7.493 fps
Maximum frame rate : 29.970 fps
Color space : YUV
Chroma subsampling : 4:2:0
Bit depth : 8 bits
Scan type : Progressive
Bits/(Pixel*Frame) : 0.138
Stream size : 1.01 GiB (93%)
Language : English
Encoded date : UTC 1970-01-01 00:00:00
Tagged date : UTC 2011-04-08 04:42:10

Audio
ID : 2
Format : AAC
Format/Info : Advanced Audio Codec
Format profile : LC
Codec ID : 40
Duration : 38mn 6s
Bit rate mode : Variable
Bit rate : 128 Kbps
Channel(s) : 2 channels
Channel positions : Front: L R
Sampling rate : 48.0 KHz
Compression mode : Lossy
Stream size : 34.9 MiB (3%)
Language : English
Encoded date : UTC 1970-01-01 00:00:00
Tagged date : UTC 2011-04-08 04:42:10

Other #1
ID : 65536
Type : Hint
Format : RTP
Codec ID : rtp
Duration : 38mn 6s
Encoded date : UTC 2011-04-08 04:41:28
Tagged date : UTC 2011-04-08 04:42:10
Duration_FirstFrame : -100

Other #2
ID : 65537
Type : Hint
Format : RTP
Codec ID : rtp
Duration : 38mn 6s
Encoded date : UTC 2011-04-08 04:42:09
Tagged date : UTC 2011-04-08 04:42:10
Bit rate mode : VBR
Трекер:  [ 10-Авг-2016 01:30 ]

Размер .torrent файла 11 KB


Размер: 1.09 GB
Хэш (hash) релиза: cc0a825f93287131173358eeffb4f8bdba4fec76
Подписка на обновления:

Еще никто не оставлял запись к записи скачать торрент Nikki Sexx . Будь первым!

!Обратная связь
//main.js show_panel