Статистика раздачи
Размер:  1.24 GB   |    Зарегистрирован:  4 года 3 месяца   |    .torrent скачан:  28 раз   |   

Пиры будут получены при скачивании

 

Скачать порно Angelina Valentine через торрент бесплатно :: UnionPron.org

 
 
Автор Сообщение

Sakura

avatar Sakura


Angelina Valentine & John Strong & Toni Ribas - Two in the Bush...and in the Ass!



Имя актрисы: Angelina Valentine
Название ролика: Two in the Bush...and in the Ass!
Номер на сайте: 5571

Год производства: 28 мая 2011 г.
Жанр: Anal, Ass Worship, Big Tits, Black Hair, Double Penetration (DP), First DP, Threesome
Продолжительность: 00:43:08

Описание: After a long day, Angelina knows that there is no better way to relax than to have a nice, big cock up her ass. When the first guy she calls takes forever to show up, however, she decides to get someone else to fill her tight, little asshole. When both guys end up knocking on her door at the same time, she decides that two is much better than one, especially when it comes to big dicks!

Доп. информация: Первый DP с Angelina Valentine

Тип HD видео: 720p
Формат видео: MP4
Видео: MPEG4 Video (H264) 1280x720 29.97fps 3799kbps
Аудио: AAC 48000Hz stereo 127kbps

General
Complete name : bblib_angelina_valentine_720p_3800.mp4
Format : MPEG-4
Format profile : Base Media
Codec ID : isom
File size : 1.24 GiB
Duration : 43mn 7s
Overall bit rate mode : Variable
Overall bit rate : 4 108 Kbps
Encoded date : UTC 1970-01-01 00:00:00
Tagged date : UTC 1970-01-01 00:00:00
Writing application : Lavf52.32.0

Video
ID : 1
Format : AVC
Format/Info : Advanced Video Codec
Format profile : High@L3.1
Format settings, CABAC : Yes
Format settings, ReFrames : 4 frames
Codec ID : avc1
Codec ID/Info : Advanced Video Coding
Duration : 43mn 7s
Duration_FirstFrame : -100ms
Bit rate : 3 800 Kbps
Width : 1 280 pixels
Height : 720 pixels
Display aspect ratio : 16:9
Frame rate mode : Variable
Frame rate : 29.970 fps
Minimum frame rate : 7.493 fps
Maximum frame rate : 29.970 fps
Color space : YUV
Chroma subsampling : 4:2:0
Bit depth : 8 bits
Scan type : Progressive
Bits/(Pixel*Frame) : 0.138
Stream size : 1.14 GiB (92%)
Language : English
Encoded date : UTC 1970-01-01 00:00:00
Tagged date : UTC 2011-05-24 11:30:08

Audio
ID : 2
Format : AAC
Format/Info : Advanced Audio Codec
Format profile : LC
Codec ID : 40
Duration : 43mn 7s
Bit rate mode : Variable
Bit rate : 128 Kbps
Channel(s) : 2 channels
Channel positions : Front: L R
Sampling rate : 48.0 KHz
Compression mode : Lossy
Stream size : 39.5 MiB (3%)
Language : English
Encoded date : UTC 1970-01-01 00:00:00
Tagged date : UTC 2011-05-24 11:30:08

Other #1
ID : 65536
Type : Hint
Format : RTP
Codec ID : rtp
Duration : 43mn 7s
Encoded date : UTC 2011-05-24 11:29:41
Tagged date : UTC 2011-05-24 11:30:08
Duration_FirstFrame : -100

Other #2
ID : 65537
Type : Hint
Format : RTP
Codec ID : rtp
Duration : 43mn 7s
Encoded date : UTC 2011-05-24 11:30:06
Tagged date : UTC 2011-05-24 11:30:08
Bit rate mode : VBR
Фотосет:
[url]...1302088[/url]Видео альтернативного размера:
[url=...1301955]HD WMV 1920x1080 12000kbps - 3.66 GB[/url]
[url=...1302087]HD MP4 1920x1080 8000kbps - 2.63 GB[/url]
[url=...1302086]SD WMV 768x432 2200kbps - 739 MB[/url]
[url=...1301056]MPEG4 768x432 1100kbps - 400 MB[/url]
Трекер:  [ 10-Авг-2016 01:30 ]

Размер .torrent файла 13 KB


Размер: 1.24 GB
Хэш (hash) релиза: 4d9d60b76a8aa64582306f271eff32d4d3e2308c
Подписка на обновления:

Еще никто не оставлял запись к записи скачать торрент Angelina Valentine . Будь первым!

!Обратная связь
//main.js show_panel