Статистика раздачи
Размер:  3.05 GB   |    Зарегистрирован:  4 года 4 месяца   |    .torrent скачан:  22 раза   |   

Пиры будут получены при скачивании

 

Скачать порно Lea Lexis через торрент бесплатно :: UnionPron.org

 
 
Автор Сообщение

Sakura

avatar Sakura


Lea Lexis & Keiran Lee - Lexis and O''s



Имя актрисы: Lea Lexis
Название ролика: Lexis and O''s
Номер на сайте: 5843

Год производства: 2 сентября 2011 г.
Жанр: Anal, Gonzo, Natural Tits, Blonde, Blowjob (POV), Medium Ass
Продолжительность: 00:51:33

Описание: After waking up from an afternoon cat nap, Lea is craving some hard cock. Lucky for her, there''s someone real special waiting for her up in her room. After oiling up her gorgeous ass, she''s gonna make her way up to that special someone, and finally get that dick she craves.

Тип HD видео: 720p
Формат видео: MP4
Видео: MPEG4 Video (H264) 1280x720 29.97fps 7994kbps
Аудио: AAC 48000Hz stereo 127kbps

General
Complete name : bwb_lea_lexis_v2_720p_8000.mp4
Format : MPEG-4
Format profile : Base Media
Codec ID : isom
File size : 3.05 GiB
Duration : 51mn 32s
Overall bit rate : 8 466 Kbps
Writing application : Lavf54.37.100

Video
ID : 1
Format : AVC
Format/Info : Advanced Video Codec
Format profile : High@L4.1
Format settings, CABAC : Yes
Format settings, ReFrames : 5 frames
Codec ID : avc1
Codec ID/Info : Advanced Video Coding
Duration : 51mn 32s
Bit rate : 8 000 Kbps
Width : 1 280 pixels
Height : 720 pixels
Display aspect ratio : 16:9
Frame rate mode : Constant
Frame rate : 29.970 fps
Color space : YUV
Chroma subsampling : 4:2:0
Bit depth : 8 bits
Scan type : Progressive
Bits/(Pixel*Frame) : 0.290
Stream size : 2.88 GiB (94%)
Writing library : x264 core 128 r2216 198a7ea
Encoding settings : cabac=1 / ref=5 / deblock=1:0:0 / analyse=0x3:0x113 / me=umh / subme=8 / psy=1 / psy_rd=1.00:0.00 / mixed_ref=1 / me_range=16 / chroma_me=1 / trellis=1 / 8x8dct=1 / cqm=0 / deadzone=21,11 / fast_pskip=1 / chroma_qp_offset=-2 / threads=36 / lookahead_threads=6 / sliced_threads=0 / nr=0 / decimate=1 / interlaced=0 / bluray_compat=0 / constrained_intra=0 / bframes=3 / b_pyramid=2 / b_adapt=2 / b_bias=0 / direct=3 / weightb=1 / open_gop=0 / weightp=2 / keyint=60 / keyint_min=6 / scenecut=40 / intra_refresh=0 / rc_lookahead=50 / rc=abr / mbtree=1 / bitrate=8000 / ratetol=1.0 / qcomp=0.60 / qpmin=0 / qpmax=69 / qpstep=4 / ip_ratio=1.40 / aq=1:1.00
Tagged date : UTC 2013-10-27 23:46:57

Audio
ID : 2
Format : AAC
Format/Info : Advanced Audio Codec
Format profile : LC
Codec ID : 40
Duration : 51mn 32s
Duration_LastFrame : 12ms
Bit rate mode : Constant
Bit rate : 128 Kbps
Channel(s) : 2 channels
Channel positions : Front: L R
Sampling rate : 48.0 KHz
Compression mode : Lossy
Stream size : 47.2 MiB (2%)
Tagged date : UTC 2013-10-27 23:46:57

Other #1
ID : 65536
Type : Hint
Format : RTP
Codec ID : rtp
Duration : 51mn 32s
Encoded date : UTC 2013-10-27 23:45:49
Tagged date : UTC 2013-10-27 23:46:57

Other #2
ID : 65537
Type : Hint
Format : RTP
Codec ID : rtp
Duration : 51mn 32s
Encoded date : UTC 2013-10-27 23:46:45
Tagged date : UTC 2013-10-27 23:46:57
Bit rate mode : VBR
Трекер:  [ 10-Июл-2016 10:00 ]

Размер .torrent файла 15 KB


Размер: 3.05 GB
Хэш (hash) релиза: a3358948b743f974f84d068c4e5ffed322b0c0aa
Подписка на обновления:

Еще никто не оставлял запись к записи скачать торрент Lea Lexis . Будь первым!

!Обратная связь
//main.js show_panel