Статистика раздачи
Размер:  2.54 GB   |    Зарегистрирован:  4 года 6 месяцев   |    .torrent скачан:  12 раз   |   

Пиры будут получены при скачивании

 

Скачать порно Kristina Rose через торрент бесплатно :: UnionPron.org

 
 
Автор Сообщение

Sakura

avatar Sakura


Hot & Lustful



Имя актрисы: Kristina Rose
Название ролика: Hot & Lustful
Номер на сайте: 5993

Год производства: 18 ноября 2011 г.
Жанр: Anal, Gonzo, Natural Tits, Brunette, Oil, Ass Worship
Продолжительность: 00:42:54

Описание: Kristina shakes her bubble butt while Manuel Ferrera pours some oil all over her sexy body and then he fucks her asshole and her yummy pussy really hard. She is hot, lustful and hungry for cock.

Тип HD видео: 1080p
Формат видео: MP4
Видео: MPEG4 Video (H264) 1920x1080 29.97fps 8023kbps
Аудио: AAC 48000Hz stereo 115kbps

General
Complete name : \bwb_kristina_rose02_1080p_8000.mp4
Format : MPEG-4
Format profile : Base Media
Codec ID : isom
File size : 2.54 GiB
Duration : 42mn 53s
Overall bit rate mode : Variable
Overall bit rate : 8 485 Kbps
Encoded date : UTC 1970-01-01 00:00:00
Tagged date : UTC 1970-01-01 00:00:00
Writing application : Lavf52.31.0

Video
ID : 1
Format : AVC
Format/Info : Advanced Video Codec
Format profile : High@L4
Format settings, CABAC : Yes
Format settings, ReFrames : 4 frames
Codec ID : avc1
Codec ID/Info : Advanced Video Coding
Duration : 42mn 53s
Duration_FirstFrame : -100ms
Bit rate : 8 023 Kbps
Width : 1 920 pixels
Height : 1 080 pixels
Display aspect ratio : 16:9
Frame rate mode : Variable
Frame rate : 29.970 fps
Minimum frame rate : 7.493 fps
Maximum frame rate : 29.970 fps
Color space : YUV
Chroma subsampling : 4:2:0
Bit depth : 8 bits
Scan type : Progressive
Bits/(Pixel*Frame) : 0.129
Stream size : 2.40 GiB (95%)
Language : English
Encoded date : UTC 1970-01-01 00:00:00
Tagged date : UTC 2011-11-04 18:28:36

Audio
ID : 2
Format : AAC
Format/Info : Advanced Audio Codec
Format profile : LC
Codec ID : 40
Duration : 42mn 53s
Bit rate mode : Variable
Bit rate : 116 Kbps
Channel(s) : 2 channels
Channel positions : Front: L R
Sampling rate : 48.0 KHz
Compression mode : Lossy
Stream size : 35.6 MiB (1%)
Language : English
Encoded date : UTC 1970-01-01 00:00:00
Tagged date : UTC 2011-11-04 18:28:36

Other #1
ID : 65536
Type : Hint
Format : RTP
Codec ID : rtp
Duration : 42mn 53s
Encoded date : UTC 2011-11-04 18:23:34
Tagged date : UTC 2011-11-04 18:28:36
Duration_FirstFrame : -100

Other #2
ID : 65537
Type : Hint
Format : RTP
Codec ID : rtp
Duration : 42mn 53s
Encoded date : UTC 2011-11-04 18:28:33
Tagged date : UTC 2011-11-04 18:28:36
Bit rate mode : VBR
Фотосет:
[url]...2166063[/url]

Альтернативного размера и качества:
| [url=...2166053]HD MP4 720P - 1,22 GIB[/url] | [url=...1542352]SD MP4 - 682 MB[/url] | [url=...1377739]MPEG4 - 403MB[/url] |
Трекер:  [ 18-Май-2016 19:30 ]

Размер .torrent файла 13 KB


Размер: 2.54 GB
Хэш (hash) релиза: 37bcd41b6b0a38d4b71cb62eeda3a6efbf3f5ad6
Подписка на обновления:

Еще никто не оставлял запись к записи скачать торрент Kristina Rose . Будь первым!

!Обратная связь
//main.js show_panel