Статистика раздачи
Размер:  1.23 GB   |    Зарегистрирован:  4 года 6 месяцев   |    .torrent скачан:  13 раз   |   

Пиры будут получены при скачивании

 

Скачать порно Kristina Rose через торрент бесплатно :: UnionPron.org

 
 
Автор Сообщение

Sakura

avatar Sakura


Hot & Lustful



Имя актрисы: Kristina Rose
Название ролика: Hot & Lustful
Номер на сайте: 5993

Год производства: 18 ноября 2011 г.
Жанр: Anal, Gonzo, Natural Tits, Brunette, Oil, Ass Worship
Продолжительность: 00:42:54

Описание: Kristina shakes her bubble butt while Manuel Ferrera pours some oil all over her sexy body and then he fucks her asshole and her yummy pussy really hard. She is hot, lustful and hungry for cock.

Тип HD видео: 720p
Формат видео: MP4
Видео: MPEG4 Video (H264) 1280x720 29.97fps 3808kbps
Аудио: AAC 48000Hz stereo 110kbps

General
Complete name : bwb_kristina_rose02_720p_3800.mp4
Format : MPEG-4
Format profile : Base Media
Codec ID : isom
File size : 1.23 GiB
Duration : 42mn 53s
Overall bit rate mode : Variable
Overall bit rate : 4 095 Kbps
Encoded date : UTC 1970-01-01 00:00:00
Tagged date : UTC 1970-01-01 00:00:00
Writing application : Lavf52.32.0

Video
ID : 1
Format : AVC
Format/Info : Advanced Video Codec
Format profile : High@L3.1
Format settings, CABAC : Yes
Format settings, ReFrames : 4 frames
Codec ID : avc1
Codec ID/Info : Advanced Video Coding
Duration : 42mn 53s
Duration_FirstFrame : -100ms
Bit rate : 3 809 Kbps
Width : 1 280 pixels
Height : 720 pixels
Display aspect ratio : 16:9
Frame rate mode : Variable
Frame rate : 29.970 fps
Minimum frame rate : 7.493 fps
Maximum frame rate : 29.970 fps
Color space : YUV
Chroma subsampling : 4:2:0
Bit depth : 8 bits
Scan type : Progressive
Bits/(Pixel*Frame) : 0.138
Stream size : 1.14 GiB (93%)
Language : English
Encoded date : UTC 1970-01-01 00:00:00
Tagged date : UTC 2011-11-04 10:34:52

Audio
ID : 2
Format : AAC
Format/Info : Advanced Audio Codec
Format profile : LC
Codec ID : 40
Duration : 42mn 53s
Bit rate mode : Variable
Bit rate : 111 Kbps
Channel(s) : 2 channels
Channel positions : Front: L R
Sampling rate : 48.0 KHz
Compression mode : Lossy
Stream size : 34.0 MiB (3%)
Language : English
Encoded date : UTC 1970-01-01 00:00:00
Tagged date : UTC 2011-11-04 10:34:52

Other #1
ID : 65536
Type : Hint
Format : RTP
Codec ID : rtp
Duration : 42mn 53s
Encoded date : UTC 2011-11-04 10:33:28
Tagged date : UTC 2011-11-04 10:34:52
Duration_FirstFrame : -100

Other #2
ID : 65537
Type : Hint
Format : RTP
Codec ID : rtp
Duration : 42mn 53s
Encoded date : UTC 2011-11-04 10:34:51
Tagged date : UTC 2011-11-04 10:34:52
Bit rate mode : VBR
Фотосет:
[url]...2166063[/url]

Альтернативного размера и качества:
| [url=...2166033]HD MP4 1080P - 2.54 GIB[/url] | [url=...1542352]SD MP4 - 682 MB[/url] | [url=...1377739]MPEG4 - 403MB[/url] |
Трекер:  [ 18-Май-2016 19:30 ]

Размер .torrent файла 12 KB


Размер: 1.23 GB
Хэш (hash) релиза: b2eb225f0a1d6fc29ed78fc50d6d247edba47215
Подписка на обновления:

Еще никто не оставлял запись к записи скачать торрент Kristina Rose . Будь первым!

!Обратная связь
//main.js show_panel