Статистика раздачи
Размер:  2.41 GB   |    Зарегистрирован:  4 года 7 месяцев   |    .torrent скачан:  17 раз   |   

Пиры будут получены при скачивании

 

Скачать порно Diana Prince Diana Prince - Training Day через торрент бесплатно :: UnionPron.org

 
 
Автор Сообщение

Sakura

avatar Sakura


Diana Prince - Training Day



Имя актрисы: Diana Prince
Название ролика: Training Day
Номер на сайте: 5534

Год производства: 16 апреля 2011 г.
Жанр: Anal, MILF, Bathtub, Blowjob (POV), Big Tits, Ass Worship
Продолжительность: 00:40:37

Описание: Diana Prince loves a beefy cock in her ass, but can she handle one under the pressure of being an official Big Butts like it Big harlot. An instruction video is shown to her and the challenge becomes whether or not she can apply what she learns. This scene also stars Keiran Lee who will provide the man cock.

Тип HD видео: 1080p
Формат видео: MP4
Видео: MPEG4 Video (H264) 1920x1080 29.97fps 8016kbps
Аудио: AAC 48000Hz stereo 121kbps
General
Complete name : \bblib_diana_prince03_1080p_8000.mp4
Format : MPEG-4
Format profile : Base Media
Codec ID : isom
File size : 2.41 GiB
Duration : 40mn 36s
Overall bit rate mode : Variable
Overall bit rate : 8 494 Kbps
Encoded date : UTC 1970-01-01 00:00:00
Tagged date : UTC 1970-01-01 00:00:00
Writing application : Lavf52.31.0

Video
ID : 1
Format : AVC
Format/Info : Advanced Video Codec
Format profile : High@L4
Format settings, CABAC : Yes
Format settings, ReFrames : 4 frames
Format settings, GOP : N=1
Codec ID : avc1
Codec ID/Info : Advanced Video Coding
Duration : 40mn 36s
Duration_FirstFrame : -100ms
Bit rate : 8 017 Kbps
Width : 1 920 pixels
Height : 1 080 pixels
Display aspect ratio : 16:9
Frame rate mode : Variable
Frame rate : 29.970 fps
Minimum frame rate : 7.493 fps
Maximum frame rate : 29.970 fps
Color space : YUV
Chroma subsampling : 4:2:0
Bit depth : 8 bits
Scan type : Progressive
Bits/(Pixel*Frame) : 0.129
Stream size : 2.27 GiB (94%)
Language : English
Encoded date : UTC 1970-01-01 00:00:00
Tagged date : UTC 2011-04-04 01:40:15

Audio
ID : 2
Format : AAC
Format/Info : Advanced Audio Codec
Format profile : LC
Codec ID : 40
Duration : 40mn 36s
Bit rate mode : Variable
Bit rate : 121 Kbps
Channel(s) : 2 channels
Channel positions : Front: L R
Sampling rate : 48.0 KHz
Compression mode : Lossy
Stream size : 35.3 MiB (1%)
Language : English
Encoded date : UTC 1970-01-01 00:00:00
Tagged date : UTC 2011-04-04 01:40:15

Other #1
ID : 65536
Type : Hint
Format : RTP
Codec ID : rtp
Duration : 40mn 36s
Encoded date : UTC 2011-04-04 01:33:57
Tagged date : UTC 2011-04-04 01:40:15
Duration_FirstFrame : -100

Other #2
ID : 65537
Type : Hint
Format : RTP
Codec ID : rtp
Duration : 40mn 36s
Encoded date : UTC 2011-04-04 01:40:12
Tagged date : UTC 2011-04-04 01:40:15
Bit rate mode : VBR
Трекер:  [ 19-Апр-2016 16:30 ]

Размер .torrent файла 12 KB


Размер: 2.41 GB
Хэш (hash) релиза: 9ed7215f19239c3205b3af553c5e81e1c54b8046
Подписка на обновления:

Еще никто не оставлял запись к записи скачать торрент Diana Prince . Будь первым!

!Обратная связь
//main.js show_panel