Статистика раздачи
Размер:  1.46 GB   |    Зарегистрирован:  5 лет 7 месяцев   |    .torrent скачан:  58 раз   |   

Пиры будут получены при скачивании

 

Скачать порно The Human Centipede III / Человеческая многоножка 3 через торрент бесплатно :: UnionPron.org

 
 
Автор Сообщение

Sakura

avatar Sakura


The Human Centipede III (Final Sequence) / Человеческая многоножка 3

Год производства: 2015 г.
Страна: США
Доминирующий жанр: BDSM, Fetish
Жанр: Perverted
Продолжительность: 01:42:40

Режиссер: Tom Six
Студия: Six Entertainment Company

Язык: Русский
В ролях: Эрик Робертс, Bree Olson, Том ’Тайни’ Листер мл., Роберт ЛаСардо, Том Сикс, Клэйтон Ронер, Лоуренс Р. Харви, Майкл Флорес, Дитер Лазер, Джей Таваре

Описание: Надзиратель беспокойной тюрьмы, у которого не получается заслужить уважение заключенных и губернатора штата, решается на внедрение революционного наказания, способного не только навести порядок в тюремной системе, но и сэкономить миллионы долларов, — в буквальном смысле поставить заключенных на колени, сшив их в гигантскую многоножку из 500 человек.

Видео: AVI, (XviD), 720x304, 25.00fps, ~ 1634 Kbps
Аудио: 48 kHz, AC3 Dolby Digital, 2 ch, ~192 kbps (Русский)
General
Complete name : C:\Users\Роман\Desktop\The Human Centipede III (Final Sequence) (2015).avi
Format : AVI
Format/Info : Audio Video Interleave
File size : 1.46 GiB
Duration : 1h 42mn
Overall bit rate : 2 032 Kbps
Writing application : VirtualDubMod 1.5.10.3 | www.virtualdub-fr.org || (build 2550/release)
Writing library : VirtualDubMod build 2550/release

Video
ID : 0
Format : MPEG-4 Visual
Format profile : Advanced Simple@L5
Format settings, BVOP : 1
Format settings, QPel : No
Format settings, GMC : No warppoints
Format settings, Matrix : Custom
Codec ID : XVID
Codec ID/Hint : XviD
Duration : 1h 42mn
Bit rate : 1 634 Kbps
Width : 720 pixels
Height : 304 pixels
Display aspect ratio : 2.35:1
Frame rate : 24.000 fps
Color space : YUV
Chroma subsampling : 4:2:0
Bit depth : 8 bits
Scan type : Progressive
Compression mode : Lossy
Bits/(Pixel*Frame) : 0.311
Stream size : 1.17 GiB (80%)
Writing library : XviD 73

Audio #1
ID : 1
Format : AC-3
Format/Info : Audio Coding 3
Mode extension : CM (complete main)
Format settings, Endianness : Big
Codec ID : 2000
Duration : 1h 42mn
Bit rate mode : Constant
Bit rate : 192 Kbps
Channel(s) : 2 channels
Channel positions : Front: L R
Sampling rate : 48.0 KHz
Compression mode : Lossy
Stream size : 141 MiB (9%)
Alignment : Split accross interleaves
Interleave, duration : 42 ms (1.00 video frame)
Interleave, preload duration : 500 ms

Audio #2
ID : 2
Format : AC-3
Format/Info : Audio Coding 3
Mode extension : CM (complete main)
Format settings, Endianness : Big
Codec ID : 2000
Duration : 1h 42mn
Bit rate mode : Constant
Bit rate : 192 Kbps
Channel(s) : 2 channels
Channel positions : Front: L R
Sampling rate : 48.0 KHz
Compression mode : Lossy
Stream size : 141 MiB (9%)
Alignment : Split accross interleaves
Interleave, duration : 42 ms (1.00 video frame)
Interleave, preload duration : 500 ms
Трекер:  [ 28-Май-2015 00:00 ]

Размер .torrent файла 15 KB


Размер: 1.46 GB
Хэш (hash) релиза: 217031db034a2eb6f1f5cc7f651914bbbf05acd7
Подписка на обновления:

Еще никто не оставлял запись к записи скачать торрент The Human Centipede III . Будь первым!

!Обратная связь
//main.js show_panel