Статистика раздачи
Размер:  3.33 GB   |    Зарегистрирован:  5 лет 7 месяцев   |    .torrent скачан:  62 раза   |   

Пиры будут получены при скачивании

 

Скачать порно The Human Centipede III / Человеческая многоножка 3 через торрент бесплатно :: UnionPron.org

 
 
Автор Сообщение

Sakura

avatar Sakura


The Human Centipede III (Final Sequence) / Человеческая многоножка 3

Год производства: 2015 г.
Страна: США
Доминирующий жанр: Извращения
Жанр: Perverted
Продолжительность: 01:42:40

Режиссер: Tom Six
Студия: Six Entertainment Company

Язык: Русский
В ролях: Эрик Робертс, Бри Олсон, Том ’Тайни’ Листер мл., Роберт ЛаСардо, Том Сикс, Клэйтон Ронер, Лоуренс Р. Харви, Майкл Флорес, Дитер Лазер, Джей Таваре

Описание: Надзиратель беспокойной тюрьмы, у которого не получается заслужить уважение заключенных и губернатора штата, решается на внедрение революционного наказания, способного не только навести порядок в тюремной системе, но и сэкономить миллионы долларов, — в буквальном смысле поставить заключенных на колени, сшив их в гигантскую многоножку из 500 человек.

Видео: MPEG4 Video, (H264), 1280x542, 25.00fps, ~ 3970 Kbps
Аудио#1: 48 kHz, AC3 Dolby Digital, 2 ch, ~192 kbps (Русский)
Аудио#2: 48 kHz, AC3 Dolby Digital, 6 ch, ~384 kbps (Английский)
General
Unique ID : 247430998688227811074050674471590764997 (0xBA257A19ADCFAAF890DF96C7412121C5)
Complete name : C:\Users\Роман\Desktop\The Human Centipede III (Final Sequence) (2015) [WEB-DL].mkv
Format : Matroska
Format version : Version 4 / Version 2
File size : 3.33 GiB
Duration : 1h 42mn
Overall bit rate : 4 638 Kbps
Encoded date : UTC 2015-05-23 16:01:07
Writing application : mkvmerge v6.1.0 ('Old Devil') built on Mar 4 2013 09:10:42
Writing library : libebml v1.3.0 + libmatroska v1.4.0

Video
ID : 1
Format : AVC
Format/Info : Advanced Video Codec
Format profile : Main@L3.1
Format settings, CABAC : No
Format settings, ReFrames : 2 frames
Codec ID : V_MPEG4/ISO/AVC
Duration : 1h 42mn
Bit rate : 3 970 Kbps
Width : 1 280 pixels
Height : 542 pixels
Display aspect ratio : 2.35:1
Frame rate mode : Constant
Frame rate : 24.000 fps
Color space : YUV
Chroma subsampling : 4:2:0
Bit depth : 8 bits
Scan type : Progressive
Bits/(Pixel*Frame) : 0.238
Stream size : 2.85 GiB (86%)
Language : English
Default : Yes
Forced : No
Color range : Limited
Color primaries : BT.709
Transfer characteristics : BT.709
Matrix coefficients : BT.709

Audio #1
ID : 2
Format : AC-3
Format/Info : Audio Coding 3
Mode extension : CM (complete main)
Format settings, Endianness : Big
Codec ID : A_AC3
Duration : 1h 42mn
Bit rate mode : Constant
Bit rate : 192 Kbps
Channel(s) : 2 channels
Channel positions : Front: L R
Sampling rate : 48.0 KHz
Compression mode : Lossy
Stream size : 141 MiB (4%)
Language : Russian
Default : Yes
Forced : No

Audio #2
ID : 3
Format : AC-3
Format/Info : Audio Coding 3
Mode extension : CM (complete main)
Format settings, Endianness : Big
Codec ID : A_AC3
Duration : 1h 42mn
Bit rate mode : Constant
Bit rate : 384 Kbps
Channel(s) : 6 channels
Channel positions : Front: L C R, Side: L R, LFE
Sampling rate : 48.0 KHz
Compression mode : Lossy
Stream size : 282 MiB (8%)
Language : English
Default : No
Forced : No

Text
ID : 4
Format : UTF-8
Codec ID : S_TEXT/UTF8
Codec ID/Info : UTF-8 Plain Text
Language : English
Default : No
Forced : No

Menu
00:00:00.000 : en:1
00:14:40.000 : en:2
00:25:19.000 : en:3
00:35:13.000 : en:4
00:46:40.000 : en:5
00:58:55.000 : en:6
01:14:43.000 : en:7
01:23:15.000 : en:8
01:39:22.000 : en:9
Трекер:  [ 26-Май-2015 23:00 ]

Размер .torrent файла 17 KB


Размер: 3.33 GB
Хэш (hash) релиза: e787ccdedb713b0914911eac9fb6e192b6aef660
Подписка на обновления:

Еще никто не оставлял запись к записи скачать торрент The Human Centipede III . Будь первым!

!Обратная связь
//main.js show_panel