Статистика раздачи
Размер:  7.04 GB   |    Зарегистрирован:  5 лет 8 месяцев   |    .torrent скачан:  54 раза   |   

Пиры будут получены при скачивании

 

Скачать порно The Human Centipede II / Человеческая многоножка 2 MVO + Original + Subs через торрент бесплатно :: UnionPron.org

 
 
Автор Сообщение

Sakura

avatar Sakura


The Human Centipede II (Full Sequence) / Человеческая многоножка 2

Год производства: 2011
Страна: США
Жанр: BDSM, Copro, Fetish
Продолжительность: 01.28.01
Режиссер: Том Сикс / Tom Six
Студия: Six Entertainment
Перевод: Профессиональный (многоголосый закадровый) [Позитив]
Субтитры: Русские, английские

В ролях: Лоуренс Р. Харви, Эшлинн Йенни, Мэдди Блэк, Кэндес Кейн, Доминик Боррелли, Лукас Хансен, Ли Николас Харрис, Дэн Бурман, Дэниэл Джуд Дженнис, Джорджия Гудрик

Описание: Мартин, маленький толстый мужчина в очках, страдающий от приступов астмы, коротает время в своей сторожке, раз за разом пересматривая DVD с первой частью фильма. Мартин буквально затирает несчастный диск, сексуально возбуждаясь от вида страданий людей на экране. Однажды он замечает парочку молодых людей, которые о чем-то громко спорят, распространяя гулкое эхо по пустынной автостоянке. Мерзкий карлик что-то задумывает, всматриваясь в экраны камер наблюдения. Недолго думая Мартин берет монтировку и отправляется к припаркованным автомобилям. Прострелив жертвам ноги, безумец вырубает парня и девушку ударом по голове и прячет в своем маленьком фургончике. Со временем, фургон становится пристанищем еще нескольких жертв. А Мартин арендует ангар, где собирается воплотить в жизнь свой давний план.

Тип HD видео: 1080p
Качество видео: BDRip
Формат видео: MKV
Видео кодек: H.264/AVC
Аудио кодек: AC3
Видео: 1920x1080p (16:9), 25 fps, AVC MPEG4 Video (H264), High@L4.1 ~ 9122 Kbps Kbps
Аудио#1: 48 kHz, AC3 Dolby Digital, 2/0 (Front: L R) ch, ~192 kbps avg (Русский)
Аудио#2: 48 kHz, DTS, 6 ch (Front: L C R, Side: L R, LFE), ~1510 kbps avg (Английский)
Аудио#3: 48 kHz, AC3 Dolby Digital, 6 ch (Front: L C R, Side: L R, LFE), ~640 kbps avg (Английский)
General
Unique ID : 190536169521210453534301571977831981588 (0x8F57EE72A74E627E9DEDD1564A9B2214)
Complete name : C:\Users\Documents\Infectant\The Human Centipede II (2011) BDRip (1080p).mkv
Format : Matroska
Format version : Version 4 / Version 2
File size : 7.04 GiB
Duration : 1h 27mn
Overall bit rate : 11.5 Mbps
Encoded date : UTC 2015-05-02 17:53:57
Writing application : mkvmerge v7.8.0 ('River Man') 64bit built on Mar 27 2015 16:31:37
Writing library : libebml v1.3.1 + libmatroska v1.4.2
DURATION : 01:24:14.945000000
NUMBER_OF_FRAMES : 167
NUMBER_OF_BYTES : 5675
_STATISTICS_WRITING_APP : mkvmerge v7.8.0 ('River Man') 64bit built on Mar 27 2015 16:31:37
_STATISTICS_WRITING_DATE_UTC : 2015-05-02 17:53:57
_STATISTICS_TAGS : BPS DURATION NUMBER_OF_FRAMES NUMBER_OF_BYTES

Video
ID : 1
Format : AVC
Format/Info : Advanced Video Codec
Format profile : High@L4.1
Format settings, CABAC : Yes
Format settings, ReFrames : 4 frames
Codec ID : V_MPEG4/ISO/AVC
Duration : 1h 27mn
Bit rate : 9 122 Kbps
Width : 1 920 pixels
Height : 1 080 pixels
Display aspect ratio : 16:9
Frame rate mode : Constant
Frame rate : 23.976 fps
Color space : YUV
Chroma subsampling : 4:2:0
Bit depth : 8 bits
Scan type : Progressive
Bits/(Pixel*Frame) : 0.183
Stream size : 5.46 GiB (78%)
Writing library : x264 core 115 r2008 4c552d8
Encoding settings : cabac=1 / ref=4 / deblock=1:-3:-3 / analyse=0x3:0x113 / me=umh / subme=10 / psy=1 / psy_rd=1.10:0.15 / mixed_ref=1 / me_range=32 / chroma_me=1 / trellis=2 / 8x8dct=1 / cqm=2 / deadzone=21,11 / fast_pskip=0 / chroma_qp_offset=-2 / threads=12 / sliced_threads=0 / nr=0 / decimate=1 / interlaced=0 / bluray_compat=0 / constrained_intra=0 / bframes=6 / b_pyramid=2 / b_adapt=2 / b_bias=0 / direct=3 / weightb=1 / open_gop=0 / weightp=2 / keyint=250 / keyint_min=23 / scenecut=40 / intra_refresh=0 / rc_lookahead=60 / rc=2pass / mbtree=1 / bitrate=9122 / ratetol=1.0 / qcomp=0.60 / qpmin=1 / qpmax=63 / qpstep=4 / cplxblur=20.0 / qblur=0.5 / vbv_maxrate=40000 / vbv_bufsize=30000 / nal_hrd=none / ip_ratio=1.40 / aq=1:0.80
Language : English
Default : No
Forced : No
DURATION : 01:27:57.393000000
NUMBER_OF_FRAMES : 126531
NUMBER_OF_BYTES : 6016029108
_STATISTICS_WRITING_APP : mkvmerge v7.8.0 ('River Man') 64bit built on Mar 27 2015 16:31:37
_STATISTICS_WRITING_DATE_UTC : 2015-05-02 17:53:57
_STATISTICS_TAGS : BPS DURATION NUMBER_OF_FRAMES NUMBER_OF_BYTES

Audio #1
ID : 2
Format : AC-3
Format/Info : Audio Coding 3
Mode extension : CM (complete main)
Format settings, Endianness : Big
Codec ID : A_AC3
Duration : 1h 27mn
Bit rate mode : Constant
Bit rate : 192 Kbps
Channel(s) : 2 channels
Channel positions : Front: L R
Sampling rate : 48.0 KHz
Bit depth : 16 bits
Compression mode : Lossy
Stream size : 121 MiB (2%)
Title : Позитив
Language : Russian
Default : Yes
Forced : Yes

Audio #2
ID : 3
Format : DTS
Format/Info : Digital Theater Systems
Mode : 16
Format settings, Endianness : Big
Codec ID : A_DTS
Duration : 1h 27mn
Bit rate mode : Constant
Bit rate : 1 509 Kbps
Channel(s) : 6 channels
Channel positions : Front: L C R, Side: L R, LFE
Sampling rate : 48.0 KHz
Bit depth : 24 bits
Compression mode : Lossy
Stream size : 949 MiB (13%)
Language : English
Default : No
Forced : No

Audio #3
ID : 4
Format : AC-3
Format/Info : Audio Coding 3
Mode extension : CM (complete main)
Format settings, Endianness : Big
Codec ID : A_AC3
Duration : 1h 27mn
Bit rate mode : Constant
Bit rate : 640 Kbps
Channel(s) : 6 channels
Channel positions : Front: L C R, Side: L R, LFE
Sampling rate : 48.0 KHz
Bit depth : 16 bits
Compression mode : Lossy
Stream size : 403 MiB (6%)
Language : English
Default : No
Forced : No

Text #1
ID : 5
Format : UTF-8
Codec ID : S_TEXT/UTF8
Codec ID/Info : UTF-8 Plain Text
Language : Russian
Default : No
Forced : No

Text #2
ID : 6
Format : UTF-8
Codec ID : S_TEXT/UTF8
Codec ID/Info : UTF-8 Plain Text
Language : English
Default : No
Forced : No

Menu
00:00:00.000 : en:00:00:00.000
00:08:29.759 : en:00:08:29.759
00:15:59.959 : en:00:15:59.959
00:22:07.576 : en:00:22:07.576
00:29:33.271 : en:00:29:33.271
00:33:36.598 : en:00:33:36.598
00:39:37.333 : en:00:39:37.333
00:46:36.377 : en:00:46:36.377
00:55:26.365 : en:00:55:26.365
01:04:39.959 : en:01:04:39.959
01:14:37.098 : en:01:14:37.098
01:24:48.417 : en:01:24:48.417
В фильме присутствуют сцены жестокости и насилия. Людям с ослабленной психикой просьба не качать.
Трекер:  [ 02-Май-2015 22:30 ]

Размер .torrent файла 18 KB


Размер: 7.04 GB
Хэш (hash) релиза: ab26b893635d3ba5c96b55b0891fdd3dbb40245b
Подписка на обновления:

Еще никто не оставлял запись к записи скачать торрент The Human Centipede II . Будь первым!

!Обратная связь
//main.js show_panel