Статистика раздачи
Размер:  1 GB   |    Зарегистрирован:  6 лет 5 месяцев   |    .torrent скачан:  116 раз   |   

Пиры будут получены при скачивании

 

Скачать порно Felicia Clover через торрент бесплатно :: UnionPron.org

 
 
Автор Сообщение

Sakura

avatar Sakura


BlacksOnBlondes.com
Имя актрисы: Felicia Clover
Название ролика: Felicia Clover Interracial at Blacks On Blondes
Номер на сайте: 220
Год производства: 2013 г.
Жанр: Interracial, Big Cock, Bi Tits, Hardcore, BBW
Продолжительность: 00:35:04

Описание: This week we have something for the PAWG - phat ass white girl- lovers out there: Felicia Clover. Actually, despite your preference in body shapes, Felicia Clover is here to drain Lexington Steele's big black cock. We begin the fun by having Lex oil up that voluptuous beauty right after feeling every inch of her amazing frame. Those tits? Drenched in oil. That big ass? You guessed it....drenched in oil. Lexington Steele finally gives her that legendary black thermometer ,and Felicia Clover's huge tits glisten as she sucks on his black dick. The foreplay ends the very second Lex invades her meaty white pussy with his massive black dong. Felicia Clover's love for interracial sex is evident when her screams pierce the ear drums of everyone around the place. Lex continues to fuck this bodacious beauty and he ends up coating her face with his nut butter.

Тип HD видео: 1080p
Формат видео: MP4
Видео: Video: MPEG4 Video (H264) 1920x1080 29.97fps 4000kbps [Video]
Аудио: Audio: AAC 44100Hz stereo 96kbps [Audio]
Format : MPEG-4
Format profile : Base Media
Codec ID : isom
File size : 1.00 GiB
Duration : 35mn 4s
Overall bit rate : 4 099 Kbps
Writing application : Lavf56.0.0

Video
ID : 1
Format : AVC
Format/Info : Advanced Video Codec
Format profile : High@L4.0
Format settings, CABAC : Yes
Format settings, ReFrames : 4 frames
Format settings, GOP : M=1, N=2
Codec ID : avc1
Codec ID/Info : Advanced Video Coding
Duration : 35mn 4s
Duration_LastFrame : -10ms
Bit rate mode : Variable
Bit rate : 4 000 Kbps
Width : 1 920 pixels
Height : 1 080 pixels
Display aspect ratio : 16:9
Frame rate mode : Constant
Frame rate : 29.970 fps
Color space : YUV
Chroma subsampling : 4:2:0
Bit depth : 8 bits
Scan type : Progressive
Bits/(Pixel*Frame) : 0.064
Stream size : 1 003 MiB (98%)
Writing library : x264 core 123 r2189 35cf912
Encoding settings : cabac=1 / ref=3 / deblock=1:0:0 / analyse=0x3:0x113 / me=hex / subme=7 / psy=1 / psy_rd=1.00:0.00 / mixed_ref=1 / me_range=16 / chroma_me=1 / trellis=1 / 8x8dct=1 / cqm=0 / deadzone=21,11 / fast_pskip=1 / chroma_qp_offset=-2 / threads=2 / sliced_threads=0 / nr=0 / decimate=1 / interlaced=0 / bluray_compat=0 / constrained_intra=0 / bframes=3 / b_pyramid=2 / b_adapt=1 / b_bias=0 / direct=1 / weightb=1 / open_gop=0 / weightp=2 / keyint=250 / keyint_min=25 / scenecut=40 / intra_refresh=0 / rc_lookahead=40 / rc=2pass / mbtree=1 / bitrate=4000 / ratetol=1.0 / qcomp=0.60 / qpmin=10 / qpmax=51 / qpstep=4 / cplxblur=20.0 / qblur=0.5 / ip_ratio=1.40 / aq=1:1.00
Tagged date : UTC 2015-02-19

Audio
ID : 2
Format : AAC
Format/Info : Advanced Audio Codec
Format version : Version 4
Format profile : LC
Format settings, SBR : No
Codec ID : 40
Duration : 35mn 4s
Bit rate mode : Variable
Bit rate : 96.0 Kbps
Channel(s) : 2 channels
Channel positions : Front: L R
Sampling rate : 44.1 KHz
Stream size : 24.1 MiB (2%)
Tagged date : UTC 2015-02-19
Трекер:  [ 21-Фев-2015 22:00 ]

Размер .torrent файла 10 KB


Размер: 1 GB
Хэш (hash) релиза: 593c86abe504cfb8720e16e1a43215a1efbc8916
Подписка на обновления:

Еще никто не оставлял запись к записи скачать торрент Felicia Clover . Будь первым!

!Обратная связь
//main.js show_panel